<?xml version="1.0" standalone="no"?>
<!DOCTYPE svg PUBLIC "-//W3C//DTD SVG 1.1//EN" "http://www.w3.org/Graphics/SVG/1.1/DTD/svg11.dtd" >
<svg xmlns="http://www.w3.org/2000/svg">
<metadata>Generated by IcoMoon</metadata>
<defs>
<font id="icomoon" horiz-adv-x="1024">
<font-face units-per-em="1024" ascent="960" descent="-64" />
<missing-glyph horiz-adv-x="1024" />
<glyph unicode="&#x20;" horiz-adv-x="512" d="" />
<glyph unicode="&#xe900;" glyph-name="bike" d="M170.69 115.229c-69.047 0-131.256 43.264-157.692 109.602-26.391 66.385-11.766 142.776 37.077 193.548 48.796 50.777 122.208 65.946 185.999 38.388 63.75-27.51 105.281-92.286 105.234-164.141-0.14-97.995-76.453-177.352-170.628-177.403l0.008 0.006zM170.69 411.308v-0.049c-46.125 0-87.704-28.876-105.327-73.215-17.673-44.338-7.875-95.359 24.704-129.265 32.626-33.949 81.656-44.094 124.224-25.755 42.609 18.389 70.406 61.655 70.406 109.602-0.094 65.508-51.093 118.577-114 118.627l-0.006 0.055zM853.466 115.229c-69.047-0.049-131.292 43.167-157.74 109.554-26.437 66.337-11.859 142.776 36.984 193.548 48.796 50.777 122.208 65.996 185.999 38.485 63.75-27.51 105.327-92.336 105.281-164.179-0.187-97.895-76.406-177.202-170.532-177.403l0.007-0.005zM853.466 411.308v-0.049c-46.077 0-87.657-28.876-105.327-73.215-17.626-44.338-7.875-95.359 24.75-129.265 32.578-33.949 81.609-44.094 124.224-25.755 42.609 18.389 70.359 61.655 70.359 109.602-0.047 65.508-51.046 118.577-114 118.627l-0.006 0.055zM857.318 263.312c-5.813-0.049-11.532 1.805-16.312 5.219-54.61 39.948-68.626 81.8-88.22 139.604-8.39 24.974-17.86 53.216-32.531 87.408h0.047c-5.484 14.731 1.172 31.315 15.046 37.607 13.874 6.341 30.094 0.146 36.797-13.999 15.469-36.583 25.781-67.166 34.078-91.896 18.375-54.436 27.61-81.8 67.313-110.871 10.125-7.365 14.483-20.681 10.782-32.924-3.703-12.292-14.625-20.584-27-20.535l0.001 0.386zM536.785 263.312h-382.404c-7.829-0.536-15.515 2.341-21.234 7.902s-8.953 13.365-8.953 21.512c0 8.147 3.234 15.901 8.953 21.512 5.719 5.561 13.406 8.39 21.234 7.902h382.404c7.829 0.487 15.515-2.341 21.234-7.902 5.719-5.61 8.953-13.365 8.953-21.512s-3.234-15.95-8.953-21.512c-5.719-5.562-13.406-8.438-21.234-7.902zM61.705 521.929h169.92c7.359 0.049 14.437-2.585 20.063-7.512l125.76-112.383c5.532-4.878 8.812-12.048 8.859-19.609v-112.383c0.844-15.754 13.78-27.901 28.923-27.12h189.24c15.187-0.78 28.078 11.365 28.923 27.12v92.678c0.047 6.293 2.344 12.34 6.469 16.975l114.75 132.238c5.766 6.487 13.922 10.146 22.407 9.999h56.673c9.516-1.073 18.797 3.317 24.328 11.463 5.484 8.145 6.282 18.779 2.063 27.706l-42 78.678c-5.437 9.463-15.327 15.169-25.923 14.974h-136.080c-3.703 0-7.406-0.683-10.922-2l-206.388-78.921c-8.297-3.122-17.485-2.537-25.313 1.658l-140.76 75.654c-4.453 2.39-9.422 3.609-14.39 3.609h-138c-9.328 0.244-18.188-4.049-24-11.61l-58.688-78.678c-5.953-8.683-6.375-20.194-1.172-29.364 5.203-9.219 15.093-14.389 25.266-13.17l-0.006-0.002zM832.705 533.63c-10.875 0.049-20.766 6.536-25.547 16.73l-79.077 171.596h-134.856c-7.829-0.536-15.515 2.292-21.234 7.902-5.719 5.561-8.953 13.316-8.953 21.512 0 8.145 3.234 15.901 8.953 21.462 5.719 5.61 13.406 8.438 21.234 7.902h170.856l94.219-204.912c6.703-14.683 0.75-32.242-13.359-39.314-3.797-1.902-7.969-2.879-12.234-2.879h-0.001z" />
<glyph unicode="&#xe901;" glyph-name="circle-minus" d="M512 959.971c282.292 0 511.975-229.675 511.975-511.957s-229.683-511.994-511.975-511.994c-282.292 0-511.975 229.711-511.975 511.994s229.683 511.957 511.975 511.957zM512 846.214c-219.564 0-398.216-178.644-398.216-398.201s178.65-398.201 398.216-398.201c219.564 0 398.216 178.644 398.216 398.201s-178.65 398.201-398.216 398.201zM682.669 504.921h-341.354v-113.792h341.354v113.792z" />
<glyph unicode="&#xe902;" glyph-name="circle-plus" d="M511.961 960.006c282.319 0 511.994-229.675 511.994-511.957s-229.675-511.994-511.994-511.994c-282.282 0-511.957 229.711-511.957 511.994s229.675 511.957 511.957 511.957zM511.961 846.25c-219.556 0-398.201-178.644-398.201-398.201s178.644-398.201 398.201-398.201c219.594 0 398.201 178.644 398.201 398.201s-178.607 398.201-398.201 398.201zM568.85 618.705h-113.756v-113.792h-113.792v-113.756h113.792v-113.792h113.756v113.792h113.792v113.756h-113.792v113.792z" />
<glyph unicode="&#xe903;" glyph-name="circle-check" d="M511.961 959.971c282.282 0 511.994-229.675 511.994-511.957s-229.711-511.994-511.994-511.994c-282.282 0-511.957 229.711-511.957 511.994s229.675 511.957 511.957 511.957zM511.961 846.214c-219.556 0-398.201-178.644-398.201-398.201s178.644-398.201 398.201-398.201c219.594 0 398.201 178.644 398.201 398.201s-178.607 398.201-398.201 398.201zM642.386 602.007l-187.296-187.332-73.54 73.54-80.468-80.432 154.008-153.972 267.764 267.764-80.468 80.432z" />
<glyph unicode="&#xe904;" glyph-name="circle-cross" d="M149.778 810.173c199.726 199.726 524.691 199.726 724.392 0.025s199.726-524.691 0-724.417c-199.7-199.7-524.691-199.673-724.392 0.025s-199.7 524.666 0 724.366zM230.255 729.696c-155.325-155.325-155.325-408.088 0-563.412s408.088-155.325 563.412 0c155.351 155.351 155.325 408.088 0 563.412s-408.061 155.351-563.412 0zM431.476 608.966l-80.477-80.477 80.503-80.503-80.503-80.503 80.477-80.477 80.503 80.503 80.503-80.503 80.477 80.477-80.503 80.503 80.503 80.503-80.477 80.477-80.503-80.503-80.503 80.503z" />
<glyph unicode="&#xe905;" glyph-name="target" d="M512 959.986c282.756 0 511.975-229.219 511.975-511.975s-229.219-511.975-511.975-511.975c-282.756 0-511.975 229.219-511.975 511.975s229.219 511.975 511.975 511.975zM512 831.992c-212.067 0-383.982-171.914-383.982-383.982s171.914-383.982 383.982-383.982c212.067 0 383.982 171.914 383.982 383.982s-171.914 383.982-383.982 383.982zM512 703.999c141.379 0 255.988-114.61 255.988-255.988s-114.61-255.988-255.988-255.988c-141.379 0-255.988 114.61-255.988 255.988s114.61 255.988 255.988 255.988zM512 576.004c-70.689 0-127.993-57.305-127.993-127.993s57.305-127.993 127.993-127.993c70.689 0 127.993 57.305 127.993 127.993s-57.305 127.993-127.993 127.993z" />
<glyph unicode="&#xe906;" glyph-name="logout" d="M651.207 791.043l-75.249-75.209c-119.812 71.718-277.383 55.966-380.608-47.259-121.814-121.814-121.814-319.313 0-441.127 103.239-103.239 260.843-118.982 380.66-47.227l75.197-75.241c-161.996-111.389-385.36-95.072-529.379 48.946-162.419 162.419-162.419 425.751 0 588.169 144.019 144.019 367.382 160.334 529.379 48.946zM781.367 211.457l-69.317 66.841 173.291 167.102-173.291 167.102 69.317 66.841 242.607-233.943zM415.913 500h467.886v-103.974h-467.886v103.974z" />
<glyph unicode="&#xe907;" glyph-name="minus" d="M1023.951 362.7h-1023.93v170.654h1023.93z" />
<glyph unicode="&#xe908;" glyph-name="plus" d="M1023.975 504.888h-455.098v455.098h-113.756v-455.098h-455.098v-113.792h455.098v-455.060h113.756v455.060h455.098z" />
<glyph unicode="&#xe909;" glyph-name="check" d="M354.763 64.029l-354.759 363.353 80.836 82.702 273.924-280.539 588.357 602.448 80.836-82.777z" />
<glyph unicode="&#xe90a;" glyph-name="cross" d="M1023.975 879.553l-80.432 80.432-431.525-431.525-431.525 431.525-80.468-80.432 431.562-431.525-431.562-431.525 80.468-80.468 431.525 431.525 431.525-431.525 80.432 80.468-431.525 431.525z" />
<glyph unicode="&#xe90b;" glyph-name="stopwatch" d="M561.784 959.993l99.537-102.383h-99.537v-105.947c72.527-9.37 138.928-38.868 194.004-82.916v0l69.447 71.467 70.378-72.424-69.479-71.434c52.51-69.355 84.075-156.264 84.075-250.729 0-225.851-178.64-409.6-398.21-409.6s-398.21 183.749-398.21 409.6c0 208.463 152.303 380.696 348.425 406.036v0 105.947h-99.537l99.537 102.383h99.569zM512 652.809c-164.685 0-298.641-137.82-298.641-307.184 0-169.429 133.956-307.217 298.641-307.217s298.673 137.788 298.673 307.217c0 169.364-133.988 307.184-298.673 307.184zM561.762 550.403h-99.569l-0.039-116.12c-29.711-17.721-49.706-50.798-49.706-88.671 0-56.553 44.588-102.417 99.537-102.417 54.981 0 99.569 45.863 99.569 102.417 0 37.896-20.021 70.991-49.773 88.704l-0.017 116.087z" />
<glyph unicode="&#xe90c;" glyph-name="alarm" d="M569.156 959.975v-117.716c225.22-28.155 400.121-219.52 400.121-451.138 0-250.938-205.144-455.098-457.291-455.098s-457.291 204.16-457.291 455.098c0 231.617 174.938 422.983 400.157 451.138v0 117.716h114.305zM511.985 732.427c-189.12 0-342.95-153.129-342.95-341.304 0-188.212 153.83-341.342 342.95-341.342s342.987 153.129 342.987 341.342c0 188.176-153.867 341.304-342.987 341.304zM569.149 618.638h-114.305v-284.409h228.646v113.756h-114.341v170.653zM114.329 957.515l-114.305-113.756 80.819-80.468 114.305 113.792-80.819 80.432zM909.634 957.508l-80.819-80.432 114.341-113.756 80.819 80.432-114.341 113.756z" />
<glyph unicode="&#xe90d;" glyph-name="clock" d="M512 960.006c282.328 0 511.975-229.675 511.975-511.994s-229.647-511.957-511.975-511.957c-282.328 0-511.975 229.639-511.975 511.957s229.647 511.994 511.975 511.994zM512 846.214c-219.528 0-398.216-178.607-398.216-398.201 0-219.52 178.688-398.201 398.216-398.201 219.564 0 398.216 178.68 398.216 398.201 0 219.594-178.65 398.201-398.216 398.201zM568.891 732.443h-113.797v-341.304h227.593v113.756h-113.797v227.548z" />
<glyph unicode="&#xe90e;" glyph-name="arrow-downleft" d="M0.439 906.508l152.458-0.070-0.312-710.021 763.571 763.571 107.797-107.797-763.571-763.571 709.986 0.348 0.070-152.458-970.413-0.451z" />
<glyph unicode="&#xe90f;" glyph-name="arrow-downright" d="M1023.57 906.51l-152.464-0.070 0.312-710.050-763.602 763.602-107.801-107.801 763.602-763.602-710.015 0.348-0.070-152.464 970.453-0.451z" />
<glyph unicode="&#xe910;" glyph-name="arrow-down" d="M1023.975 448.439l-80.506 80.429-374.592-374.909v806.015h-113.792v-806.015l-374.556 374.909-80.506-80.429 511.957-512.416z" />
<glyph unicode="&#xe911;" glyph-name="arrow-left" d="M512.438-63.965l80.396 80.506-374.922 374.592h806.043v113.756h-806.043l374.922 374.592-80.396 80.506-512.434-511.994z" />
<glyph unicode="&#xe912;" glyph-name="arrow-right" d="M511.54 960.006l-80.429-80.506 374.909-374.592h-806.015v-113.792h806.015l-374.909-374.556 80.429-80.506 512.416 511.957z" />
<glyph unicode="&#xe913;" glyph-name="arrow-upleft" d="M13.954-3.35l150.049 0.103-0.307 698.992 751.685-751.712 106.085 106.089-751.685 751.712 698.968-0.307 0.103 150.055-955.342 0.41z" />
<glyph unicode="&#xe914;" glyph-name="arrow-upright" d="M1023.513-10.502l-152.427 0.105 0.312 710.069-763.597-763.624-107.766 107.77 763.597 763.624-710.045-0.312-0.105 152.432 970.482 0.417z" />
<glyph unicode="&#xe915;" glyph-name="arrow-up" d="M0.004 447.573l80.506-80.396 374.592 374.922v-806.043h113.756v806.043l374.592-374.922 80.506 80.396-511.994 512.434z" />
<glyph unicode="&#xe916;" glyph-name="chevron-down" d="M512 345.62l409.592 409.592 102.398-102.398-511.99-511.99-511.99 511.99 102.398 102.398z" />
<glyph unicode="&#xe917;" glyph-name="chevron-left" d="M409.592 448.017l409.582-409.582-102.396-102.396-511.978 511.978 511.978 511.978 102.396-102.396z" />
<glyph unicode="&#xe918;" glyph-name="chevron-right" d="M614.384 448.017l-409.582-409.582 102.396-102.396 511.978 511.978-511.978 511.978-102.396-102.396z" />
<glyph unicode="&#xe919;" glyph-name="chevron-up" d="M512 550.415l409.592-409.592 102.398 102.398-511.99 511.99-511.99-511.99 102.398-102.398z" />
<glyph unicode="&#xe91a;" glyph-name="download" d="M910.201 49.799v-113.774h-796.419v113.774h796.419zM170.668 505.304l71.562 71.464 219.202-219.496v602.721h101.118v-602.721l219.202 219.496 71.562-71.464-341.338-341.73z" />
<glyph unicode="&#xe91b;" glyph-name="upload" d="M910.201 49.799v-113.774h-796.419v113.774h796.419zM170.668 618.263l71.562-71.464 219.202 219.496v-602.721h101.118v602.721l219.202-219.496 71.562 71.464-341.338 341.73z" />
<glyph unicode="&#xe91c;" glyph-name="import" d="M113.781 959.993h113.774v-1023.967h-113.774v1023.967zM626.172 732.444l71.464-71.562-162.608-162.315h375.172v-101.118h-375.172l162.608-162.315-71.464-71.562-284.843 284.452zM910.201 959.993v-113.774h-796.419v113.774h796.419zM910.201 49.799v-113.774h-796.419v113.774h796.419z" />
<glyph unicode="&#xe91d;" glyph-name="export" d="M113.781 959.993h113.774v-1023.967h-113.774v1023.967zM625.358 732.444l-71.464-71.562 162.608-162.315h-375.172v-101.118h375.172l-162.608-162.315 71.464-71.562 284.843 284.452zM910.201 959.993v-113.774h-796.419v113.774h796.419zM910.201 49.799v-113.774h-796.419v113.774h796.419z" />
<glyph unicode="&#xe91e;" glyph-name="rewind" d="M36.599 956.822h219.407c20.126 0 36.575-14.346 36.575-31.806v-386.874l680.94 419.418c4.289 1.558 8.955 2.419 13.857 2.419 20.267 0 36.575-14.222 36.575-31.806v-960.318c0-17.543-16.309-31.806-36.575-31.806-4.903 0-9.568 0.902-13.857 2.46l-680.94 419.376v-386.874c0-17.461-16.449-31.806-36.575-31.806h-219.407c-20.078 0-36.575 14.346-36.575 31.806v954.007c0 17.461 16.497 31.806 36.575 31.806z" />
<glyph unicode="&#xe91f;" glyph-name="play" d="M868.604 470.267l-3.358 2.419-675.669 484.873c-3.682 1.558-7.647 2.419-11.895 2.419-17.315 0-31.395-14.222-31.395-31.806v-960.318c0-17.584 14.078-31.806 31.395-31.806 4.248 0 8.213 0.902 11.895 2.419l679.027 487.292c5.542 5.737 9.063 13.566 9.063 22.255s-3.519 16.518-9.063 22.255z" />
<glyph unicode="&#xe920;" glyph-name="pause" d="M307.812 959.978h-201.123c-18.45 0-33.527-14.435-33.527-32.004v-959.924c0-17.569 15.080-32.004 33.527-32.004h201.123c18.405 0 33.527 14.435 33.527 32.004v959.924c0 17.569-15.122 32.004-33.527 32.004zM917.288 959.978h-201.123c-18.405 0-33.527-14.435-33.527-32.004v-959.924c0-17.569 15.122-32.004 33.527-32.004h201.123c18.45 0 33.527 14.435 33.527 32.004v959.924c0 17.569-15.080 32.004-33.527 32.004z" />
<glyph unicode="&#xe921;" glyph-name="fastforward" d="M923.998 956.845h-190.156c-17.442 0-31.699-14.345-31.699-31.807v-386.883l-590.16 419.427c-3.717 1.558-7.761 2.417-12.011 2.417-17.524 0-31.699-14.223-31.699-31.807v-960.339c0-17.543 14.175-31.807 31.699-31.807 4.248 0 8.292 0.902 12.011 2.459l590.16 419.385v-386.883c0-17.46 14.257-31.807 31.699-31.807h190.156c17.402 0 31.699 14.345 31.699 31.807v954.028c0 17.46-14.297 31.807-31.699 31.807z" />
<glyph unicode="&#xe922;" glyph-name="volume-high" d="M456.128 903.971l-285.060-227.988h-57.021c-62.716 0-114.037-51.273-114.037-114.015v-227.953c0-62.7 51.328-114.015 114.037-114.015h57.021l285.060-227.988v911.959zM697.996 689.848v0c133.362-133.37 133.362-350.342 0-483.673l80.607-80.626c177.815 177.812 177.815 467.108 0 644.885zM520.042 568.946v0c66.68-66.706 66.68-175.206 0-241.877l80.641-80.626c111.135 111.147 111.135 291.936 0.035 403.085z" />
<glyph unicode="&#xe923;" glyph-name="volume-low" d="M456.066 904.006l-285.046-227.988h-57.018c-62.713 0-113.996-51.273-113.996-114.014v-227.953c0-62.699 51.284-114.014 113.996-114.014h57.018l285.046-227.988v911.954zM519.978 568.98v0c66.677-66.704 66.677-175.205 0.033-241.874l80.603-80.624c111.129 111.147 111.129 291.936 0.033 403.083z" />
<glyph unicode="&#xe924;" glyph-name="volume-off" d="M455.649 899.735l-283.573-225.871h-56.928c-62.654 0-115.139-50.8-115.139-112.954v-225.835c0-62.117 52.487-112.954 115.139-112.954h56.928l283.573-225.871v903.485zM943.431 671.436l-144.833-143.593-144.833 143.593-80.564-79.84 144.87-143.593-144.87-143.593 80.564-79.84 144.833 143.593 144.833-143.593 80.527 79.84-144.833 143.593 144.833 143.593-80.527 79.84z" />
<glyph unicode="&#xe925;" glyph-name="eye-closed" d="M138.618 903.1l819.166-836.274-72.391-73.936-178.8 182.534c-62.394-26.577-127.493-41.027-194.572-41.027-193.78 0-371.655 117.557-512.016 313.598 66.584 92.935 141.647 167.882 222.749 221.372v0l-156.529 159.796 72.391 73.936zM335.764 553.999c-18.016-31.057-28.541-67.234-28.541-106.004 0-115.469 91.66-209.077 204.8-209.077 37.945 0 73.315 10.813 103.769 29.238v0l-77.638 79.259c-8.381-2.324-17.058-3.975-26.132-3.975-56.554 0-102.416 46.922-102.416 104.555 0 9.297 1.584 18.189 3.795 26.745v0zM512.009 761.593c-38.307 0-75.955-4.783-112.81-13.642l90.307-92.227c7.391 0.843 14.913 1.348 22.502 1.348 113.106 0 204.8-93.608 204.8-209.077 0-7.748-0.495-15.428-1.32-22.973l148.642-151.746c57.214 47.663 110.862 106.273 159.86 174.719-140.294 196.041-318.204 313.598-511.984 313.598z" />
<glyph unicode="&#xe926;" glyph-name="eye-open" d="M511.984 760.886c193.777 0 371.684-117.284 512.009-312.868-140.326-195.584-318.233-312.901-512.009-312.901-193.744 0-371.618 117.317-511.977 312.901 140.359 195.584 318.233 312.868 511.977 312.868zM511.984 656.609c-113.105 0-204.797-93.389-204.797-208.589s91.692-208.589 204.797-208.589c113.105 0 204.797 93.389 204.797 208.589s-91.692 208.589-204.797 208.589zM511.984 552.317c-56.553 0-102.383-46.711-102.383-104.312 0-57.499 45.83-104.279 102.383-104.279 56.487 0 102.415 46.779 102.415 104.279 0 57.601-45.929 104.312-102.415 104.312z" />
<glyph unicode="&#xe927;" glyph-name="mic-off" d="M164.818 432.006v0c0-174.554 129.642-319.027 297.574-343.225v-53.571l-99.181-99.182h297.574l-99.181 99.182v53.571c167.966 24.197 297.574 168.671 297.574 343.225h-99.181c0-136.739-111.262-248.005-248.001-248.005s-248.001 111.264-248.001 248.005zM512.006 927.975c-81.825 0-148.787-66.931-148.787-148.79v-347.188c0-81.826 66.962-148.79 148.787-148.79s148.787 66.964 148.787 148.79v347.188c0 81.86-66.962 148.79-148.787 148.79z" />
<glyph unicode="&#xe928;" glyph-name="mic-on" d="M150.862 893.825l-70.013-72.426 282.604-292.176v-81.202c0-84.468 66.854-153.595 148.546-153.595 22.849 0 44.421 5.577 63.79 15.211l72.534-74.999c-39.123-26.858-85.936-42.631-136.324-42.631-136.516 0-247.566 114.858-247.566 256.013h-99.051c0-180.189 129.4-329.329 297.092-354.307v-55.3l-99.020-102.385h297.092l-99.020 102.385v55.3c58.557 8.743 112.327 32.566 157.641 67.707l153.971-159.205 70.013 72.426-792.289 819.182zM759.572 448.025v0c0-22.867-3.191-44.94-8.647-66.057l77.32-79.949c19.37 44.643 30.38 93.971 30.38 146.006zM512.004 960.011c-81.692 0-148.546-69.092-148.546-153.595v-23.79l297.092-307.19v330.98c0 84.501-66.854 153.595-148.546 153.595z" />
<glyph unicode="&#xe929;" glyph-name="headphones" d="M199.164 277.394v0c-15.617 0-28.448-12.83-28.448-28.448v-284.442c0-15.617 12.83-28.448 28.448-28.448h28.448c62.579 0 113.756 51.214 113.756 113.792v113.755c0 62.579-51.178 113.792-113.756 113.792zM824.9 277.394h-28.448c-62.579 0-113.756-51.214-113.756-113.792v-113.755c0-62.579 51.178-113.792 113.756-113.792h28.448c15.653 0 28.448 12.83 28.448 28.448v284.442c0 15.617-12.794 28.448-28.448 28.448zM512.039 960.006c-282.319 0-511.994-229.672-511.994-511.951v-483.541c0-15.653 12.83-28.448 28.448-28.448h56.897c15.653 0 28.448 12.794 28.448 28.448v483.541c0 219.555 178.607 398.16 398.201 398.16 219.556 0 398.201-178.605 398.201-398.16v-483.541c0-15.653 12.794-28.448 28.448-28.448h56.859c15.653 0 28.448 12.794 28.448 28.448v483.541c0 282.279-229.675 511.951-511.957 511.951z" />
<glyph unicode="&#xe92a;" glyph-name="refresh" d="M341.31 334.22h-341.306v-341.304l122.555 122.517c95.757-111.959 237.155-179.414 389.404-179.414 141.178 0 269.195 57.372 361.873 150.123 66.978 66.978 115.149 152.579 136.925 248.078h-117.35c-19.174-64.081-53.853-121.529-100.009-167.647-72.111-72.111-171.643-116.799-281.441-116.799-121.529 0-233.965 55.394-308.459 146.603l137.806 137.842zM511.96 959.971c-141.142 0-269.159-57.41-361.835-150.123-67.089-67.087-115.332-152.286-137.035-248.078h117.020c19.027 64.668 53.891 121.125 100.449 167.647 72.111 72.111 171.643 116.799 281.403 116.799 121.565 0 234.002-55.394 308.495-146.603l-137.806-137.842h341.306v341.304l-122.555-122.555c-95.757 111.997-237.155 179.451-389.441 179.451z" />
<glyph unicode="&#xe92b;" glyph-name="repeat" d="M910.198 511.993v0c0-176.438-127.614-319.963-284.446-319.963h-284.41v127.977l-170.654-191.986 170.654-191.986v127.977h284.41c219.558 0 398.204 200.977 398.204 447.981zM682.654 959.986v-127.977h-284.446c-219.558 0-398.204-200.977-398.204-447.981h113.794c0 176.438 127.578 319.963 284.41 319.963h284.446v-128.017l170.654 192.027-170.654 191.986z" />
<glyph unicode="&#xe92c;" glyph-name="return" d="M691.199 732.471h-486.388v170.662l-204.804-227.525 204.804-227.562v170.662h486.388c127.066 0 230.409-114.825 230.409-256.011s-103.343-256.011-230.409-256.011h-486.388v-113.762h486.388c183.521 0 332.794 165.896 332.794 369.774 0 203.915-149.273 369.774-332.794 369.774z" />
<glyph unicode="&#xe92d;" glyph-name="rotate-clockwise" d="M1023.996 561.77h-341.304l137.804 137.842c-74.492 91.247-186.93 146.603-308.457 146.603-109.76 0-209.328-44.651-281.439-116.799-72.111-72.111-116.762-171.643-116.762-281.403 0-219.594 178.644-398.201 398.201-398.201 108.22 0 208.412 44.102 281.292 116.835l80.396-80.359c-93.777-93.519-222.6-150.269-361.688-150.269-282.355 0-511.994 229.675-511.994 511.994 0 141.142 57.446 269.158 150.123 361.834 92.714 92.714 220.693 150.123 361.871 150.123 152.249 0 293.647-67.455 389.402-179.451l122.555 122.591v-341.342z" />
<glyph unicode="&#xe92e;" glyph-name="rotate-anticlockwise" d="M0.009 561.804h341.301l-137.803 137.841c74.492 91.246 186.929 146.602 308.455 146.602 109.759 0 209.327-44.651 281.436-116.798 72.11-72.11 116.76-171.641 116.76-281.401 0-219.592-178.642-398.197-398.197-398.197-108.219 0-208.409 44.102-281.289 116.835l-80.395-80.359c93.776-93.518 222.598-150.268 361.684-150.268 282.353 0 511.99 229.673 511.99 511.99 0 141.14-57.446 269.156-150.122 361.831-92.713 92.713-220.691 150.122-361.868 150.122-152.248 0-293.644-67.454-389.398-179.45l-122.554 122.589v-341.338z" />
<glyph unicode="&#xe92f;" glyph-name="history" d="M511.961 960.006c-152.249 0-293.647-67.42-389.366-179.457l-122.591 122.559v-341.318h341.342l-137.842 137.846c74.456 91.25 186.966 146.609 308.457 146.609 109.796 0 209.328-44.69 281.439-116.766 72.111-72.114 116.799-171.649 116.799-281.45 0-219.564-178.644-398.216-398.238-398.216-108.184 0-208.376 44.104-281.33 116.876l-80.359-80.362c93.777-93.597 222.6-150.275 361.688-150.275 282.355 0 511.994 229.647 511.994 511.975 0 141.109-57.41 269.168-150.123 361.847-92.676 92.717-220.693 150.128-361.871 150.128zM511.972 732.476h-113.756v-341.354h227.548v113.797h-113.792v227.557z" />
<glyph unicode="&#xe930;" glyph-name="spyglass" d="M113.838 504.867c0 188.212 153.092 341.304 341.304 341.304s341.342-153.092 341.342-341.304c0-188.212-153.129-341.342-341.342-341.342s-341.304 153.129-341.304 341.342v0zM1023.996 16.447l-209.805 209.805c59.976 77.059 96.049 173.621 96.049 278.616 0 250.938-204.16 455.098-455.098 455.098s-455.098-204.16-455.098-455.098c0-250.938 204.16-455.098 455.098-455.098 104.995 0 201.52 36.111 278.616 96.049l209.805-209.805 80.432 80.432z" />
<glyph unicode="&#xe931;" glyph-name="bell" d="M391.491 49.826v0c0-62.871 53.916-113.791 120.488-113.791s120.488 50.92 120.488 113.791zM511.96 959.986c-198.742 0-361.385-153.603-361.385-341.337v-312.852l-150.57-199.097h1023.952l-150.57 199.097v312.852c0 187.734-162.643 341.337-361.424 341.337z" />
<glyph unicode="&#xe932;" glyph-name="bell-outline" d="M605.085 29.115c0-51.198-41.889-93.087-93.087-93.087s-93.087 41.889-93.087 93.087h186.174zM511.998 959.986c63.29 0 114.664-50.345 116.317-113.232 137.461-48.5 232.759-179.020 232.759-328.931v-236.711l65.822-65.822c17.458-17.458 27.265-41.135 27.265-65.822v-3.994c0-38.556-31.259-69.815-69.815-69.815h-744.696c-38.558 0-69.815 31.259-69.815 69.815v3.994c0 24.687 9.808 48.363 27.265 65.822l65.822 65.822v236.711c0 149.912 95.299 280.431 232.758 328.931 1.653 62.886 53.027 113.232 116.318 113.232zM511.998 866.899c-12.926 0-23.272-10.346-23.272-23.272v-68.454l-35.813-8.486c-114.694-27.175-196.905-129.679-196.905-248.866v-275.268l-73.808-73.809h659.596l-73.809 73.809v275.268c0 119.187-82.21 221.691-196.907 248.866l-35.811 8.486v68.454c0 12.926-10.346 23.272-23.272 23.272z" />
<glyph unicode="&#xe933;" glyph-name="alert" d="M1002.696 149.641l-399.937 688.863c-25.004 43.099-57.887 64.628-90.852 64.628s-65.85-21.49-90.852-64.588l-399.415-688.904c-50.487-86.197-9.521-156.718 90.852-156.718h798.83c100.375 0 141.342 70.518 91.373 156.718h0.003zM459.902 555.836l104.135-0.040v-241.001h-104.257v241.001l0.123 0.040zM512.028 158.515v-0.040c-23.084 0-43.886 13.849-52.727 35.060s-3.96 45.606 12.361 61.843c16.322 16.196 40.846 21.052 62.168 12.297 21.322-8.795 35.205-29.489 35.205-52.45 0.040-15.082-5.961-29.528-16.682-40.194s-25.284-16.674-40.445-16.634l0.12 0.12z" />
<glyph unicode="&#xe934;" glyph-name="comment" d="M682.692 391.117c-31.417 0-56.897 25.478-56.897 56.894s25.479 56.894 56.897 56.894c31.417 0 56.897-25.478 56.897-56.894s-25.479-56.894-56.897-56.894zM512.039 391.117c-31.417 0-56.897 25.478-56.897 56.894s25.479 56.894 56.897 56.894c31.417 0 56.859-25.478 56.859-56.894s-25.442-56.894-56.859-56.894zM341.35 391.117c-31.381 0-56.859 25.478-56.859 56.894s25.479 56.894 56.859 56.894c31.417 0 56.897-25.478 56.897-56.894s-25.479-56.894-56.897-56.894zM512.039 959.986c-282.795 0-511.994-229.227-511.994-511.975 0-141.392 57.3-269.368 149.939-362.041l-149.939-149.934h511.994c282.795 0 511.957 229.191 511.957 511.975 0 282.748-229.162 511.975-511.957 511.975z" />
<glyph unicode="&#xe935;" glyph-name="trophy" d="M910.183 618.644c0-58.509-35.56-108.806-86.187-130.62 0.294 5.608 0.843 11.182 0.843 16.864v227.548h85.344v-113.792zM113.781 618.644v113.792h85.344v-227.548c0-5.682 0.55-11.254 0.843-16.864-50.627 21.813-86.187 72.111-86.187 130.62v0zM824.839 846.193v85.344c0 15.691-12.721 28.448-28.448 28.448h-568.854c-15.691 0-28.412-12.758-28.412-28.448v-85.344h-199.1v-227.548c0-133.443 102.648-243.165 233.084-254.824 43.405-85.527 124.827-148.436 221.976-166.363v-147.666l-113.756-113.756h341.304l-113.756 113.756v147.666c97.149 17.927 178.571 80.836 222.013 166.363 130.437 11.657 233.084 121.382 233.084 254.824v227.548h-199.138z" />
<glyph unicode="&#xe936;" glyph-name="trolley" d="M370.698 163.585c-62.988 0-114.068-50.957-114.068-113.794 0-62.799 51.080-113.758 114.068-113.758s114.068 50.957 114.068 113.758c0 62.835-51.080 113.794-114.068 113.794zM798.368 163.585c-62.988 0-114.068-50.957-114.068-113.794 0-62.799 51.080-113.758 114.068-113.758s114.068 50.957 114.068 113.758c0 62.835-51.080 113.794-114.068 113.794zM0.025 959.986v-113.758h129.393l178.304-558.923c12.274-38.713 50.75-66.832 91.505-66.832h513.196v113.758h-500.040l-18.118 56.897h396.997c25.467 0 50.198 15.323 61.298 37.797l164.892 328.952c9.555 19.393 8.563 41.683-2.61 59.684-11.245 17.927-30.869 28.668-52.514 28.668h-713.255l-14.993 46.925c-12.274 38.713-50.75 66.832-91.467 66.832z" />
<glyph unicode="&#xe937;" glyph-name="shop-outline" d="M388.776 180.74c53.678 0 97.189-43.512 97.189-97.189s-43.512-97.189-97.189-97.189c-53.676 0-97.189 43.512-97.189 97.189s43.513 97.189 97.189 97.189zM777.532 180.74c53.678 0 97.189-43.512 97.189-97.189s-43.512-97.189-97.189-97.189c-53.678 0-97.189 43.512-97.189 97.189s43.512 97.189 97.189 97.189zM216.063 909.658l186.732-401.255h353.056l177.35 309.754c13.335 23.291 43.026 31.362 66.317 18.027s31.363-43.026 18.024-66.317l-205.346-358.653-439.503 0.010-32.497-72.236h510.333c26.839 0 48.595-21.76 48.595-48.595 0-26.839-21.756-48.595-48.595-48.595h-510.333c-13.762 0-27.366 2.92-39.914 8.572-48.941 22.043-70.745 79.588-48.702 128.528l51.283 113.867-148.769 319.703h-105.478c-26.838 0-48.595 21.757-48.595 48.595s21.757 48.595 48.595 48.595h167.447z" />
<glyph unicode="&#xe938;" glyph-name="calendar" d="M729.606 903.112c25.753-0.247 46.723-19.264 48.874-43.345l0.18-4.572-0.765-71.49 147.002-0.035c54.729 0 99.096-42.485 99.096-94.892v-600.984c0-52.407-44.366-94.892-99.096-94.892h-825.795c-54.729 0-99.096 42.485-99.096 94.892v600.984c0 52.407 44.366 94.892 99.096 94.892l150.302 0.035 0.752 72.43c0.271 26.202 22.673 47.233 50.037 46.975 25.753-0.247 46.723-19.264 48.874-43.345l0.18-4.572-0.744-71.49h330.293l0.775 72.43c0.271 26.202 22.673 47.233 50.037 46.975zM924.894 426.506h-825.845l0.053-338.709h825.795l-0.004 338.709zM248.381 688.817l-149.278-0.037-0.053-167.384h825.845l0.004 167.384-147.97 0.037-0.676-66.312c-0.271-26.202-22.673-47.233-50.037-46.975-25.753 0.247-46.723 19.264-48.874 43.345l-0.18 4.572 0.668 65.372h-330.349l-0.641-66.312c-0.271-26.202-22.673-47.233-50.037-46.975-25.753 0.247-46.723 19.264-48.874 43.345l-0.18 4.572 0.632 65.372z" />
<glyph unicode="&#xe939;" glyph-name="camera" d="M665.595 852.201l102.419-101.039h51.209v25.236c0 13.904 11.516 25.268 25.572 25.268v0h51.209c14.056 0 25.605-11.364 25.605-25.268v0-25.236h76.78c14.089 0 25.605-11.397 25.605-25.268v0-656.835c0-13.904-11.516-25.268-25.605-25.268v0h-972.777c-14.089 0-25.605 11.364-25.605 25.268v0 656.835c0 13.872 11.516 25.268 25.605 25.268v0h230.409l102.385 101.039h307.189zM512 650.123c-141.419 0-255.981-113.086-255.981-252.646s114.561-252.646 255.981-252.646c141.419 0 256.013 113.086 256.013 252.646s-114.594 252.646-256.013 252.646zM512 549.055c-84.832 0-153.595-67.826-153.595-151.575 0-83.716 68.763-151.607 153.595-151.607s153.595 67.891 153.595 151.607c0 83.748-68.763 151.575-153.595 151.575z" />
<glyph unicode="&#xe93a;" glyph-name="circle-filled" d="M1023.947 448c0-282.751-229.216-511.964-511.964-511.964s-511.964 229.216-511.964 511.964c0 282.751 229.216 511.964 511.964 511.964s511.964-229.216 511.964-511.964z" />
<glyph unicode="&#xe93b;" glyph-name="cloud" d="M844.68 496.33c0 0.581 0.099 1.129 0.099 1.709 0 165.571-137.785 300.279-307.178 300.279-133.595 0-247.194-83.914-289.426-200.53-137.488-3.902-248.151-114.358-248.151-249.871 0-137.965 115.019-250.195 256.366-250.195h562.785c112.907 0 204.797 89.783 204.797 200.142 0 101.942-78.361 186.114-179.291 198.466z" />
<glyph unicode="&#xe93c;" glyph-name="cog" d="M512.016 305.793c-78.561 0-142.202 63.751-142.202 142.202 0 78.561 63.641 142.238 142.202 142.238 78.451 0 142.202-63.678 142.202-142.238 0-78.451-63.751-142.202-142.202-142.202v0zM1023.963 362.687v170.65l-126.805 14.077c-9.385 36.513-23.792 70.973-42.488 102.682l79.66 99.566-120.682 120.682-99.53-79.66c-31.747 18.733-66.171 33.067-102.719 42.525l-14.040 126.768h-170.686l-14.077-126.768c-36.586-9.458-71.008-23.792-102.682-42.525l-99.603 79.66-120.719-120.682 79.734-99.566c-18.733-31.674-33.067-66.171-42.525-102.682l-126.768-14.077v-170.65l126.768-14.077c9.458-36.586 23.792-71.008 42.525-102.682l-79.734-99.603 120.719-120.682 99.603 79.697c31.674-18.733 66.097-33.104 102.682-42.488l14.077-126.805h170.686l14.040 126.805c36.55 9.385 70.973 23.756 102.647 42.488l99.603-79.697 120.682 120.682-79.66 99.603c18.77 31.674 33.104 66.097 42.488 102.682l126.805 14.077z" />
<glyph unicode="&#xe93d;" glyph-name="tool" d="M1020.146 788.64l-104.534-103.737-138.602 19.043-19.31 137.656 111.346 110.495c-51.641 14.401-106.907 8.961-154.68-15.322s-84.537-65.569-102.961-115.575c-18.383-50.047-17.093-105.139 3.669-154.226l-399.303-396.058c-49.706 13.162-102.72 3.441-144.443-26.403-41.766-29.844-67.807-76.691-70.992-127.618-3.184-50.968 16.852-100.654 54.545-135.382 37.693-34.725 89.093-50.848 140.087-43.886 50.957 6.921 96.108 36.165 122.997 79.691s32.655 96.733 15.763 144.938l394.876 391.859c47.57-19.843 100.783-21.843 149.727-5.68 48.941 16.202 90.342 49.487 116.423 93.653 26.082 44.167 35.113 96.253 25.397 146.544l-0.003 0.010zM238.785 39.496l-67.485-27.644-67.284 27.644-27.857 66.769 27.857 66.769 67.284 27.644 67.284-27.644 27.857-66.769-27.654-66.769z" />
<glyph unicode="&#xe93e;" glyph-name="filters" d="M398.241 277.372c74.305 0 137.32-47.51 160.708-113.79v0h436.559c15.617 0 28.446-12.794 28.446-28.41v0-56.894c0-15.654-12.83-28.448-28.446-28.448v0h-436.559c-23.387-66.243-86.403-113.753-160.708-113.753-74.342 0-137.32 47.51-160.781 113.753v0h-208.949c-15.653 0-28.446 12.794-28.446 28.448v0 56.894c0 15.617 12.794 28.41 28.446 28.41v0h208.949c23.461 66.279 86.439 113.79 160.781 113.79zM398.241 192.030c-47.142 0-85.339-38.199-85.339-85.305 0-47.144 38.197-85.342 85.339-85.342 47.105 0 85.339 38.199 85.339 85.342 0 47.106-38.235 85.305-85.339 85.305zM739.527 618.65c74.342 0 137.32-47.474 160.745-113.753v0h95.237c15.617 0 28.446-12.794 28.446-28.41v0-56.894c0-15.654-12.83-28.448-28.446-28.448v0h-95.237c-23.425-66.243-86.403-113.79-160.745-113.79-74.305 0-137.32 47.547-160.745 113.79v0h-550.271c-15.653 0-28.446 12.794-28.446 28.448v0 56.894c0 15.617 12.794 28.41 28.446 28.41v0h550.271c23.425 66.279 86.439 113.753 160.745 113.753zM739.527 533.344c-47.142 0-85.339-38.199-85.339-85.305 0-47.144 38.197-85.342 85.339-85.342 47.105 0 85.339 38.199 85.339 85.342 0 47.106-38.235 85.305-85.339 85.305zM284.473 959.986c74.305 0 137.32-47.51 160.745-113.79v0h550.271c15.653 0 28.446-12.794 28.446-28.41v0-56.894c0-15.654-12.794-28.448-28.446-28.448v0h-550.271c-23.425-66.279-86.439-113.79-160.745-113.79-74.342 0-137.32 47.51-160.745 113.79v0h-95.237c-15.617 0-28.446 12.794-28.446 28.448v0 56.894c0 15.617 12.83 28.41 28.446 28.41v0h95.237c23.425 66.279 86.403 113.79 160.745 113.79zM284.473 874.643c-47.142 0-85.339-38.199-85.339-85.305 0-47.144 38.197-85.342 85.339-85.342 47.105 0 85.339 38.199 85.339 85.342 0 47.106-38.235 85.305-85.339 85.305z" />
<glyph unicode="&#xe93f;" glyph-name="gauge" d="M511.997 852.184c-136.761 0-265.341-52.585-362.014-148.052-96.706-95.434-149.959-222.388-149.959-357.416 0-110.836 36.392-215.941 102.745-302.91l73.115 72.154c-47.578 67.27-73.445 146.979-73.445 230.756 0 108.003 42.595 209.56 119.934 285.947 77.339 76.354 180.248 118.423 289.625 118.423 109.442 0 212.286-42.069 289.625-118.423 77.372-76.387 119.967-177.943 119.967-285.947 0-83.778-25.901-163.486-73.512-230.724l73.181-72.187c66.319 87.002 102.711 192.075 102.711 302.91 0 135.028-53.22 261.982-149.927 357.416-96.706 95.467-225.285 148.052-362.047 148.052zM652.811 461.278c0 0-186.088-166.515-207.304-202.754-21.182-36.239-8.612-82.606 28.111-103.509 36.723-20.937 83.706-8.531 104.889 27.708s74.303 278.555 74.303 278.555zM204.83 397.46c-28.276 0-51.207-22.63-51.207-50.534 0-27.871 22.931-50.534 51.207-50.534s51.174 22.662 51.174 50.534c0 27.904-22.899 50.534-51.174 50.534zM819.215 397.469c-28.31 0-51.207-22.63-51.207-50.534 0-27.871 22.899-50.534 51.207-50.534 28.243 0 51.174 22.662 51.174 50.534 0 27.904-22.931 50.534-51.174 50.534zM258.574 597.006c-19.962-19.699-19.962-51.706 0-71.438 19.995-19.732 52.428-19.732 72.423 0 19.962 19.732 19.995 51.739 0 71.438-19.995 19.732-52.428 19.732-72.423 0zM693.042 597.020c-19.995-19.732-19.995-51.706 0-71.438 19.962-19.732 52.396-19.732 72.389 0s19.962 51.739 0 71.438c-19.995 19.732-52.396 19.732-72.389 0zM512.001 700.607c-28.276 0-51.207-22.63-51.207-50.534s22.931-50.501 51.207-50.501c28.243 0 51.207 22.597 51.207 50.501s-22.964 50.534-51.207 50.534z" />
<glyph unicode="&#xe940;" glyph-name="drawer" d="M810.66 857.58v-665.553h-193.691c0-51.206-47.284-102.381-102.267-102.381-54.95 0-102.267 51.173-102.267 102.381h-199.112v665.553h597.338zM910.201 934.39c0 14.121-11.132 25.603-24.893 25.603h-746.632c-13.762 0-24.893-11.482-24.893-25.603v-972.761c0-14.121 11.132-25.603 24.893-25.603h746.632c13.762 0 24.893 11.482 24.893 25.603v972.761z" />
<glyph unicode="&#xe941;" glyph-name="grid2x2" d="M36.664 391.13v0c-20.164 0-36.66-16.496-36.66-36.66v-381.777c0-20.164 16.496-36.66 36.66-36.66h381.775c20.164 0 36.66 16.496 36.66 36.66v381.777c0 20.164-16.496 36.66-36.66 36.66zM605.521 391.13v0c-20.164 0-36.66-16.496-36.66-36.66v-381.777c0-20.164 16.496-36.66 36.66-36.66h381.775c20.164 0 36.66 16.496 36.66 36.66v381.777c0 20.164-16.496 36.66-36.66 36.66zM36.664 959.986v0c-20.164 0-36.66-16.496-36.66-36.66v-381.777c0-20.164 16.496-36.66 36.66-36.66h381.775c20.164 0 36.66 16.496 36.66 36.66v381.777c0 20.164-16.496 36.66-36.66 36.66zM605.521 959.986v0c-20.164 0-36.66-16.496-36.66-36.66v-381.777c0-20.164 16.496-36.66 36.66-36.66h381.775c20.164 0 36.66 16.496 36.66 36.66v381.777c0 20.164-16.496 36.66-36.66 36.66z" />
<glyph unicode="&#xe942;" glyph-name="grid3x3" d="M28.467 163.595v0c-15.654 0-28.448-12.794-28.448-28.448v-170.651c0-15.654 12.794-28.448 28.448-28.448h170.651c15.617 0 28.448 12.794 28.448 28.448v170.651c0 15.654-12.83 28.448-28.448 28.448zM824.863 163.595v0c-15.654 0-28.448-12.794-28.448-28.448v-170.651c0-15.654 12.794-28.448 28.448-28.448h170.651c15.617 0 28.448 12.794 28.448 28.448v170.651c0 15.654-12.83 28.448-28.448 28.448zM426.659 163.595v0c-15.617 0-28.448-12.794-28.448-28.448v-170.651c0-15.654 12.83-28.448 28.448-28.448h170.651c15.654 0 28.448 12.794 28.448 28.448v170.651c0 15.654-12.794 28.448-28.448 28.448zM28.467 561.782v0c-15.654 0-28.448-12.794-28.448-28.448v-170.651c0-15.617 12.794-28.448 28.448-28.448h170.651c15.617 0 28.448 12.83 28.448 28.448v170.651c0 15.654-12.83 28.448-28.448 28.448zM824.863 561.782v0c-15.654 0-28.448-12.794-28.448-28.448v-170.651c0-15.617 12.794-28.448 28.448-28.448h170.651c15.617 0 28.448 12.83 28.448 28.448v170.651c0 15.654-12.83 28.448-28.448 28.448zM426.659 561.782v0c-15.617 0-28.448-12.794-28.448-28.448v-170.651c0-15.617 12.83-28.448 28.448-28.448h170.651c15.654 0 28.448 12.83 28.448 28.448v170.651c0 15.654-12.794 28.448-28.448 28.448zM28.467 959.989v0c-15.654 0-28.448-12.794-28.448-28.448v-170.651c0-15.654 12.794-28.448 28.448-28.448h170.651c15.617 0 28.448 12.794 28.448 28.448v170.651c0 15.654-12.83 28.448-28.448 28.448zM824.856 959.991v0c-15.654 0-28.448-12.83-28.448-28.448v-170.651c0-15.654 12.794-28.448 28.448-28.448h170.651c15.654 0 28.448 12.794 28.448 28.448v170.651c0 15.617-12.794 28.448-28.448 28.448zM426.659 959.989v0c-15.617 0-28.448-12.794-28.448-28.448v-170.651c0-15.654 12.83-28.448 28.448-28.448h170.651c15.654 0 28.448 12.794 28.448 28.448v170.651c0 15.654-12.794 28.448-28.448 28.448z" />
<glyph unicode="&#xe943;" glyph-name="template" d="M972.757 960.006h-921.556c-30.719 0-51.197-20.479-51.197-51.197v-194.551c0-5.119 5.119-10.24 10.24-10.24h1003.471c5.119 0 10.24 5.119 10.24 10.24v194.551c0 30.719-20.479 51.197-51.197 51.197zM1013.715 601.624h-645.089c-5.119 0-10.24-5.119-10.24-10.24v-645.089c0-5.119 5.119-10.24 10.24-10.24h604.131c30.719 0 51.197 20.479 51.197 51.197v604.131c0 5.119-5.119 10.24-10.24 10.24zM245.752 601.624h-235.508c-5.119 0-10.24-5.119-10.24-10.24v-604.131c0-30.719 20.479-51.197 51.197-51.197h194.551c5.119 0 10.24 5.119 10.24 10.24v645.089c0 5.119-5.119 10.24-10.24 10.24z" />
<glyph unicode="&#xe944;" glyph-name="align-left" d="M0.047 150.887v-118.871h796.424v118.871h-796.424zM0.011 507.424v-118.871h1023.98v118.871h-1023.98zM0.047 863.999v-118.871h511.971v118.871h-511.971z" />
<glyph unicode="&#xe945;" glyph-name="align-right" d="M1023.96 150.911v-118.868h-796.402v118.868h796.402zM1023.996 507.438v-118.868h-1023.952v118.868h1023.952zM1023.96 864.004v-118.868h-511.957v118.868h511.957z" />
<glyph unicode="&#xe946;" glyph-name="align-centre" d="M107.454 150.896v-118.862h843.18v118.862h-843.18zM0.004 507.444v-118.862h1023.952v118.862h-1023.952zM254.095 863.993v-118.862h549.901v118.862h-549.901z" />
<glyph unicode="&#xe947;" glyph-name="align-justify" d="M1023.996 150.911v-118.868h-1023.952v118.868h1023.952zM1023.996 507.438v-118.868h-1023.952v118.868h1023.952zM1023.996 864.004v-118.868h-1023.952v118.868h1023.952z" />
<glyph unicode="&#xe948;" glyph-name="droplet" d="M802.059 454.157l-290.292 505.839-290.151-506.376c-33.31-53.474-50.954-115.123-50.954-178.323 0-186.998 153.145-339.251 341.341-339.251s341.295 152.207 341.295 339.251c0.046 63.384-17.689 125.261-51.231 178.873l-0.006-0.011z" />
<glyph unicode="&#xe949;" glyph-name="education" d="M537.605 852.201l-486.421-303.147v-335.447c-15.244-8.759-25.605-24.844-25.605-43.502 0-17.648 9.239-33.148 23.162-42.167l-48.734-84.139h153.595l-48.734 84.139c13.924 9.020 23.13 24.518 23.13 42.167 0 18.657-10.328 34.744-25.605 43.502v303.537l435.213-271.236 486.388 303.147-486.388 303.147zM204.814 393.597v-142.358l332.794-207.448 332.794 207.448v142.326l-332.794-207.416-332.794 207.448z" />
<glyph unicode="&#xe94a;" glyph-name="fire" d="M932.574 371.754c-2.411 47.135-12.499 92.232-29.516 133.953-6.624 12.335-12.567 25.072-17.9 38.143-19.563 47.871-30.603 99.988-30.603 154.712 0 32.996 4.348 64.887 11.718 95.642 1.461 6.151 3.056 12.302 4.788 18.386-6.114-4.848-11.956-9.962-17.594-15.344-35.63-33.663-61.477-77.056-73.466-125.896-2.411-9.662-4.314-19.522-5.537-29.619-0.34-4.513-0.645-9.026-1.189-13.506-13.144-108.547-88.241-198.171-189.424-234.107 53.835 66.458 86.238 150.567 86.238 242.198 0 36.305-5.435 71.272-14.876 104.601-3.906 13.84-8.457 27.346-13.823 40.517-19.903 48.606-49.284 92.466-86.204 129.039-13.077 12.904-27.308 24.671-42.083 35.736-6.283 4.68-12.499 9.461-19.089 13.773 1.358-4.279 2.276-8.726 3.464-13.037 5.571-19.824 9.816-40.182 12.125-61.176 1.495-13.806 2.377-27.779 2.377-41.954 0-26.811-2.785-52.953-8.016-78.225-9.272-44.83-26.764-86.616-50.269-124.358-4.822-7.756-9.816-15.411-15.183-22.765-29.245-40.449-66.096-75.050-108.62-101.927-1.495 13.806-2.377 27.779-2.377 41.954 0 52.886-10.801 103.264-30.229 149.196-15.318 36.204-35.969 69.701-61.070 99.386-5.095 6.051-10.598 11.7-16.031 17.384 1.223-12.402 1.935-24.971 1.935-37.709 0-2.307-0.306-4.58-0.374-6.886-0.815-45.798-9.782-89.524-25.339-130.141-8.219-21.428-18.205-41.888-29.958-61.276-5.095-8.391-10.257-16.648-15.93-24.604-20.379-33.396-35.969-69.835-46.192-108.479-8.796-33.396-13.96-68.23-13.96-104.367 0-20.793 2.038-41.085 5.061-61.043 3.94-26.376 10.359-51.917 19.123-76.421 57.673-161.532 213.606-277.5 397.426-277.5 99.45 0 190.714 34.098 262.822 90.828 61.851 48.606 109.265 113.962 135.555 189.145 14.809 42.389 23.266 87.652 23.266 134.989 0 7.020-0.713 13.84-1.053 20.76z" />
<glyph unicode="&#xe94b;" glyph-name="flag" d="M995.542 789.334h-341.354v142.204c0 15.653-12.794 28.448-28.413 28.448h-597.322c-15.655 0-28.449-12.794-28.449-28.448v-967.055c0-15.653 12.794-28.448 28.449-28.448h56.862c15.655 0 28.449 12.794 28.449 28.448v426.649h341.318v-142.241c0-15.617 12.832-28.448 28.449-28.448h512.012c15.617 0 28.413 12.83 28.413 28.448v511.994c0 15.617-12.794 28.448-28.413 28.448z" />
<glyph unicode="&#xe94c;" glyph-name="star" d="M511.979 959.986l142.21-398.201h369.767l-312.869-227.548 117.317-398.201-316.423 227.548-316.423-227.548 117.317 398.201-312.869 227.548h369.767z" />
<glyph unicode="&#xe94d;" glyph-name="heart" d="M940.646 419.074c111.077 109.057 111.077 286.068 0 395.162-111.005 109.021-291.186 108.985-402.189-0.072-9.789-9.564-18.403-19.885-26.432-30.458-8.065 10.61-16.717 20.896-26.505 30.531-111.005 109.021-291.186 108.985-402.189-0.072-111.115-109.13-111.077-286.032-0.036-395.054l426.679-419.087 430.674 419.051z" />
<glyph unicode="&#xe94e;" glyph-name="caret" d="M64.812 527.559l351.158-351.158c53.035-53.035 139.020-53.035 192.056 0l351.158 351.158c53.035 53.035 53.035 139.020 0 192.056-25.468 25.468-60.009 39.775-96.026 39.775h-702.318c-75.001 0-135.803-60.801-135.803-135.803 0-36.018 14.307-70.559 39.776-96.028z" />
<glyph unicode="&#xe94f;" glyph-name="game" d="M796.424 306.822c-31.454 0-56.897 25.292-56.897 56.479 0 31.224 25.478 56.479 56.897 56.479s56.897-25.255 56.897-56.479c0-31.187-25.478-56.442-56.897-56.479zM682.632 137.421c-31.381 0-56.86 25.255-56.86 56.479 0 31.187 25.478 56.442 56.86 56.442 31.454 0 56.897-25.255 56.897-56.442-0.037-31.224-25.442-56.479-56.897-56.479zM284.467 137.421c-78.562 0-142.241 63.248-142.241 141.161 0 77.95 63.679 141.198 142.241 141.198 78.526 0 142.204-63.248 142.204-141.198 0-77.914-63.679-141.161-142.204-141.161zM739.527 560.943h-199.1v28.24c0 46.69-38.272 84.682-85.344 84.682h-113.756c-15.654 0-28.412 12.701-28.412 28.24 0 15.575 12.757 28.24 28.412 28.24h398.201c47.035 0 85.344 37.993 85.344 84.719 0 46.69-38.309 84.682-85.344 84.682h-227.548v-56.442h227.548c15.691 0 28.448-12.701 28.448-28.24 0-15.575-12.757-28.24-28.448-28.24h-398.201c-47.035 0-85.307-37.993-85.307-84.719 0-46.69 38.272-84.682 85.307-84.682h113.756c15.691 0 28.448-12.701 28.448-28.24v-28.24h-199.063c-157.125 0-284.445-126.423-284.445-282.359s127.319-282.324 284.445-282.324h455.060c157.088 0 284.445 126.386 284.445 282.324s-127.356 282.359-284.445 282.359z" />
<glyph unicode="&#xe950;" glyph-name="home" d="M511.988 959.978l-511.966-511.966h127.971v-511.966h255.982v192.018c0 70.687 57.325 127.971 128.012 127.971s128.012-57.284 128.012-127.971v-192.018h255.941v511.966h128.012l-511.966 511.966z" />
<glyph unicode="&#xe951;" glyph-name="home-wide" d="M921.578 448v149.323h-153.59l-256.005 248.894-511.977-497.787h102.383v-298.647h307.212v248.894h204.764v-248.894h307.212v298.647h102.415z" />
<glyph unicode="&#xe952;" glyph-name="image" d="M947.179 846.217c42.366 0 76.814-33.489 76.814-74.678v0-647.078c0-41.189-34.448-74.678-76.814-74.678v0h-870.391c-42.333 0-76.78 33.489-76.78 74.678v0 647.078c0 41.189 34.448 74.678 76.78 74.678v0zM921.574 746.647h-819.182v-597.293l237.898 231.282c9.932 9.656 26.265 9.656 36.197 0v0l84.304-81.959 460.784 447.97zM297.228 632.872c-44.79 0-81.082-35.778-81.082-79.978s36.292-80.012 81.082-80.012c44.79 0 81.082 35.813 81.082 80.012s-36.292 79.978-81.082 79.978z" />
<glyph unicode="&#xe953;" glyph-name="leaf" d="M253.439 164.616c173.035-37.101 343.652 73.358 380.715 246.213 30.354 141.658 169.81 231.88 311.463 201.451 28.412-6.085 54.66-16.754 78.379-30.795-8.395 28.779-19.466 56.568-32.481 83.33-8.542 17.45-17.927 34.461-28.302 50.885-72.733 114.895-189.568 201.745-333.056 232.502-272.42 58.511-540.295-106.463-614.459-371.154-2.932-10.522-6.159-20.897-8.505-31.711-23.609-110.239 12.794-219.378 87.030-293.762-20.786-40.876-38.53-82.817-52.497-124.28-10.631-32.481-19.136-64.633-25.955-95.464-6.268-31.199-12.83-66.832-15.727-95.794h129.043c-0.916 22.4 0.109 51.728 1.723 78.895 2.236 27.495 5.719 56.421 11.071 86.226 11.254 59.427 29.768 122.301 56.97 182.168 26.762 59.978 61.442 117.057 99.898 166.513 38.2 49.676 80.102 91.689 118.815 124.61 5.499 4.729 21.666 17.231 17.194 12.061-200.273-232.87-181.32-421.892-181.32-421.892z" />
<glyph unicode="&#xe954;" glyph-name="link" d="M309.146 570.21l-283.982-284.173c-16.23-16.244-25.141-37.89-25.141-60.905s8.911-44.662 25.141-60.905l202.83-202.992c16.23-16.244 37.859-25.199 60.857-25.199 23.033 0 44.625 8.954 60.857 25.199l283.982 284.211-81.154 81.182-263.685-263.897-162.27 162.4 263.722 263.897-81.154 81.182zM643.545 661.272l-344.248-344.486 81.117-81.219 344.248 344.523-81.117 81.182zM390.308 651.411l81.117-81.219 263.685 263.933 162.27-162.4-263.685-263.897 81.079-81.182 284.019 284.173c16.23 16.244 25.178 37.853 25.178 60.905s-8.947 44.662-25.178 60.905l-202.83 202.992c-32.462 32.487-89.25 32.487-121.712 0z" />
<glyph unicode="&#xe955;" glyph-name="lock" d="M362.647 550.406v153.587c0 84.696 66.981 153.587 149.326 153.587s149.359-68.891 149.359-153.587v-153.587h-298.685zM511.975 217.629c-41.221 0-74.647 34.38-74.647 76.778 0 42.431 33.426 76.81 74.647 76.81 41.253 0 74.679-34.38 74.679-76.81 0-42.397-33.426-76.778-74.679-76.778v0zM885.307 550.406h-124.433v153.587c0 141.147-111.666 256-248.899 256s-248.899-114.852-248.899-256v-153.587h-124.401c-13.698 0-24.893-11.548-24.893-25.603v-179.19c0-226.206 178.261-409.587 398.194-409.587s398.226 183.381 398.226 409.587v179.19c0 14.056-11.196 25.603-24.893 25.603v0z" />
<glyph unicode="&#xe956;" glyph-name="percent" d="M750.922 891.722l-665.568-887.424h170.659l665.568 887.424zM409.604 686.933v68.263c0 113.128-91.662 204.79-204.79 204.79s-204.79-91.662-204.79-204.79v-68.263c0-113.128 91.662-204.79 204.79-204.79s204.79 91.662 204.79 204.79zM136.551 686.933v68.263c0 37.731 30.533 68.263 68.263 68.263s68.263-30.533 68.263-68.263v-68.263c0-37.731-30.533-68.263-68.263-68.263s-68.263 30.533-68.263 68.263zM819.185 413.878c-113.128 0-204.79-91.662-204.79-204.79v-68.263c0-113.128 91.662-204.79 204.79-204.79s204.79 91.662 204.79 204.79v68.263c0 113.128-91.662 204.79-204.79 204.79zM887.449 140.825c0-37.731-30.533-68.263-68.263-68.263s-68.263 30.533-68.263 68.263v68.263c0 37.731 30.533 68.263 68.263 68.263s68.263-30.533 68.263-68.263v-68.263z" />
<glyph unicode="&#xe957;" glyph-name="brush" d="M178.983 414.601c-59.355-62.484-79.45-150.495-60.846-230.534 0.522-2.317 1.23-4.594 1.678-6.951 8.836-51.37-5.406-106.313-43.099-146.018-21.848-23.015-48.617-37.428-76.691-43.987 163.411-89.151 369.176-61.62 506.229 82.789 90.374 95.199 90.374 249.543-0.037 344.703-90.336 95.238-236.86 95.238-327.233 0zM505.79 580.697v0c-12.638-10.132-13.832-28.16-2.572-39.981l122.736-129.249c11.222-11.86 28.335-10.643 37.954 2.71l353.629 490.093c8.416 11.684 8.47 28.931 0.808 41.005l-3.754 4.827c-11.222 11.86-30.833 13.235-43.472 3.102z" />
<glyph unicode="&#xe958;" glyph-name="pen" d="M1009.651 945.661c-19.1 19.1-50.371 19.1-69.471 0l-47.989-47.951-25.589 25.589c-11.071 11.071-29.181 11.071-40.254 0l-784.384-784.384c-11.035-11.035-11.035-29.145 0-40.216l30.428-30.392-72.367-72.331v-59.94h59.867l72.367 72.367 30.428-30.428c11.035-11.035 29.145-11.035 40.216 0l621.98 622.016v-67.272l-192.981-196.060 40.546-39.886 209.294 212.63v147.485l105.545 105.508c11.035 11.071 11.035 29.145 0 40.216l-25.626 25.626 47.989 47.951c19.1 19.136 19.1 50.371 0 69.471z" />
<glyph unicode="&#xe959;" glyph-name="phone" d="M958.025 278.294c-6.342 1.503-12.904 2.457-19.687 2.457-0.294 0-0.55-0.073-0.88-0.073-96.892 12.17-187.517 44.506-267.472 92.823l-123.948-126.697c-91.614 61.772-171.019 144.331-232.792 229.639v0l124.131 126.733c-48.355 79.955-80.579 172.009-92.787 268.901 0 0.33 0.147 1.282 0.147 1.576 0 6.783-0.99 13.711-2.493 20.053-8.908 37.723-42.599 66.282-83.108 66.282h-173.512c-46.558 0-84.318-37.246-85.418-83.585 0-0.66-0.183-1.356-0.183-2.053 0-4.986 0.622-9.789 1.429-14.518 17.89-186.563 85.308-357.875 188.725-501.29 64.521-89.414 143.084-167.903 232.498-232.351 143.561-103.491 314.91-170.762 500.922-188.689 4.803-0.843 9.715-1.467 14.737-1.467 0.696 0 1.393 0.183 2.127 0.22 46.301 1.137 83.512 38.823 83.512 85.382v173.512c0 40.473-28.191 74.236-65.952 83.146z" />
<glyph unicode="&#xe95a;" glyph-name="pin" d="M511.996 422.423c-74.633 0-135.091 57.31-135.091 127.981s60.459 128.014 135.091 128.014c74.633 0 135.091-57.342 135.091-128.014s-60.459-127.981-135.091-127.981zM817.702 835.565c-168.838 165.89-442.573 165.89-611.376 0-168.872-165.89-168.872-434.918 0-600.776l305.67-298.755 305.706 298.755c168.838 165.858 168.838 434.885 0 600.776z" />
<glyph unicode="&#xe95b;" glyph-name="pound" d="M811.103 169.303l-114.622-48.609c-25.117-10.801-53.473-8.649-76.414 6.497-45.839 29.157-100.423 41.056-153.943 37.806 15.265 51.858 22.941 104.77 22.941 158.777h249.964l0.043 147.976h-270.738c-8.742 30.255-18.55 60.508-31.64 89.665-36.034 77.764-38.208 111.27-38.208 118.82 0 63.714 50.233 112.318 117.908 112.318 65.498 0 117.908-51.858 117.908-116.671v-83.166h169.205v83.166c0 156.628-128.824 284.107-287.113 284.107-161.573 1.090-288.215-122.036-288.215-278.664 0-47.511 17.484-109.121 53.473-187.93 3.283-6.497 5.459-14.051 8.742-20.506h-106.99v-149.076h136.454c0-64.811-15.265-129.623-48.015-189.033l-5.459-9.705-120.081-25.908 37.099-163.13 283.827 62.659c20.724 5.401 43.665 1.098 62.215-10.801 69.848-44.305 157.175-51.858 234.703-19.452l113.553 47.468-66.597 153.391z" />
<glyph unicode="&#xe95c;" glyph-name="tag" d="M994.227 434.808l-495.47 495.47c-16.537 19.819-42.919 29.729-69.366 29.729h-330.293c-56.174 0-99.094-42.919-99.094-99.094v-330.293c0-26.447 9.91-52.829 29.729-69.366l495.47-495.47c19.819-19.819 46.265-29.729 69.366-29.729s49.547 9.91 69.366 29.729l330.293 330.293c39.637 36.355 39.637 102.376 0 138.731zM231.201 662.725c-36.355 0-66.084 29.729-66.084 66.084s29.729 66.084 66.084 66.084c36.355 0 66.084-29.729 66.084-66.084s-29.729-66.084-66.084-66.084z" />
<glyph unicode="&#xe95d;" glyph-name="document" d="M810.641 71.404c0-18.147-14.434-32.995-32.078-32.995h-533.159c-17.642 0-32.078 14.848-32.078 32.995v753.211c0 18.114 14.434 32.995 32.078 32.995h284.271c17.674 0 32.078-14.881 32.078-32.995v-190.018c0-18.147 14.434-32.995 32.078-32.995h184.734c17.642 0 32.078-14.848 32.078-32.995v-497.201zM634.215 936.666c-12.478 12.836-28.26 23.327-35.124 23.327h-428.33c-17.642 0-37.691-2.573-44.524-5.774-6.865-3.168-12.446-34.678-12.446-52.825v-906.768c0-18.147 2.503-38.769 5.613-45.797 3.048-7.061 33.714-12.802 51.356-12.802h682.48c17.61 0 37.659 2.607 44.492 5.741 6.865 3.168 12.478 34.711 12.478 52.858v625.189c0 18.147-10.233 43.488-22.711 56.322l-253.284 260.529z" />
<glyph unicode="&#xe95e;" glyph-name="attach" d="M755.779 704.017v-409.6c0-141.153-109.381-255.976-243.804-255.976s-243.772 114.823-243.772 255.976v409.6c0 84.699 65.61 153.592 146.27 153.592s146.27-68.894 146.27-153.592v-409.6c0-28.211-21.87-51.208-48.766-51.208s-48.766 22.998-48.766 51.208v409.6h-97.502v-409.6c0-84.699 65.61-153.592 146.27-153.592 80.692 0 146.27 68.894 146.27 153.592v409.6c0 141.153-109.349 255.976-243.772 255.976s-243.804-114.823-243.804-255.976v-409.6c0-197.607 153.12-358.391 341.306-358.391s341.338 160.784 341.338 358.391v409.6h-97.534z" />
<glyph unicode="&#xe95f;" glyph-name="crop" d="M284.48 220.459v455.098h455.114v-455.098h-455.114zM853.354 220.459v483.509c0 47.071-38.311 85.344-85.347 85.344h-483.526v170.653h-113.797v-170.653h-170.659v-113.756h170.659v-483.545c0-47.071 38.275-85.344 85.347-85.344h483.526v-170.653h113.797v170.653h170.621v113.792h-170.621z" />
<glyph unicode="&#xe960;" glyph-name="scissors" d="M199.138 49.829c-47.069 0-85.341 38.272-85.341 85.341 0 47.033 38.272 85.305 85.341 85.305 47.033 0 85.305-38.272 85.305-85.305 0-47.069-38.272-85.341-85.305-85.341v0zM113.797 760.857c0 47.069 38.272 85.341 85.341 85.341 47.033 0 85.305-38.272 85.305-85.341 0-47.033-38.272-85.305-85.305-85.305-47.069 0-85.341 38.272-85.341 85.305v0zM1023.954 959.986h-80.429l-431.545-431.545-137.763 137.763c15.287 28.19 24.011 60.413 24.011 94.652 0 109.792-89.301 199.13-199.092 199.13s-199.092-89.337-199.092-199.13c0-109.756 89.301-199.056 199.092-199.056 34.239 0 66.462 8.689 94.69 23.975l137.727-137.763-137.763-137.763c-28.19 15.287-60.413 24.011-94.652 24.011-109.792 0-199.092-89.337-199.092-199.092 0-109.792 89.301-199.092 199.092-199.092s199.092 89.301 199.092 199.092c0 34.239-8.725 66.498-24.011 94.652l137.763 137.763 431.545-431.507h80.429v80.429l-431.507 431.507 431.507 431.507v80.465z" />
<glyph unicode="&#xe961;" glyph-name="folder" d="M0.035 74.706c0-13.665 11.547-24.892 25.602-24.892h972.725c14.055 0 25.602 11.228 25.602 24.892v597.292c0 13.665-11.547 24.859-25.602 24.859h-537.551l-153.581 149.347h-281.593c-14.055 0-25.602-11.195-25.602-24.892v-746.606z" />
<glyph unicode="&#xe962;" glyph-name="bin" d="M860.405 703.972v-753.759c0-14.089-11.196-14.188-24.893-14.188v0h-647.093c-13.665 0-24.893 0.099-24.893 14.188v0 753.759h696.879zM462.211 550.415h-49.786v-409.594h49.786v409.594zM611.537 550.415h-49.786v-409.594h49.786v409.594zM621.844 959.993l99.541-102.415h163.923c13.698 0 24.893-22.931 24.893-37.020v0-65.362h-796.419v65.362c0 14.089 11.196 37.020 24.893 37.020v0h163.891l99.541 102.415h219.74zM601.217 908.785h-178.486l-49.786-51.208h278.059l-49.786 51.208z" />
<glyph unicode="&#xe963;" glyph-name="print" d="M796.427 163.584h-568.854v-227.548h568.854v227.548zM767.979 959.986c15.653 0 28.448-12.794 28.448-28.448v0-312.857h199.1c15.653 0 28.448-12.794 28.448-28.448v0-511.957c0-15.653-12.794-28.448-28.448-28.448v0h-142.204v142.204c0 15.617-12.83 28.412-28.448 28.412v0h-625.751c-15.617 0-28.448-12.794-28.448-28.412v0-142.204h-142.204c-15.653 0-28.448 12.794-28.448 28.448v0 511.957c0 15.653 12.794 28.448 28.448 28.448v0h199.1v312.857c0 15.653 12.794 28.448 28.448 28.448v0zM910.183 504.925h-113.792v-56.897h113.792v56.897zM739.53 903.090h-455.098v-284.409h455.098v284.409z" />
<glyph unicode="&#xe964;" glyph-name="rocket" d="M788.816 906.908c58.436 58.473 146.126 68.701 212.442 30.354 38.419-66.282 28.044-153.936-30.318-212.409v0l-402.047-402.053v-159.216l-227.547-227.55 96.964 290.788c-44.174-11.768-91.43-6.598-131.095 16.351-23.022 39.703-28.155 86.994-16.313 131.097v0l-290.859-96.93 227.547 227.55h159.25zM183.472 219.774c-21.225 2.346-42.928-1.282-62.541-10.814-11.035-5.389-21.41-12.574-30.575-21.74-1.356-1.356-2.529-2.787-3.849-4.216-8.652-9.606-15.47-20.237-20.309-31.6-1.137-3.63-2.457-7.258-3.996-10.814-5.536-13.015-13.564-25.223-24.159-35.817-6.379-6.415-13.381-11.768-20.786-16.313-1.429-0.916-2.932-1.797-4.435-2.64 2.089-0.22 4.143-0.366 6.342-0.403 13.307-0.256 26.652 3.189 38.383 10.411 2.346 1.393 4.62 2.97 6.783 4.656 0.952 0.843 1.906 1.686 2.896 2.419 23.535 18.514 55.209 21.555 81.494 9.202-23.169-2.602-45.641-12.721-63.384-30.465-7.039-7.002-12.794-14.884-17.45-23.096-1.942-3.445-3.666-6.928-5.206-10.522-5.646-13.198-8.505-27.348-8.578-41.463-0.036-4.986 0.403-9.972 1.099-14.957 0.294-2.089 0.586-4.179 0.99-6.306 0.55 1.099 1.246 2.127 1.869 3.189 2.749 4.912 5.866 9.642 9.532 14.188 2.383 2.97 4.912 5.793 7.662 8.578 5.169 5.169 10.778 9.715 16.681 13.637 10.484 6.892 21.959 11.657 33.727 14.518 2.419 0.586 4.876 1.099 7.332 1.503 13.381 2.236 27.165 1.942 40.435-0.99-2.346-2.932-4.912-5.829-7.662-8.578-10.264-10.228-17.963-22.070-23.132-34.644-4.143-9.972-6.636-20.42-7.662-30.978-0.183-2.089-0.22-4.252-0.256-6.379 2.163 2.602 4.473 5.206 6.892 7.626l1.429 1.282c9.055 8.689 19.21 15.508 30.062 20.383 5.719 2.602 11.621 4.656 17.597 6.196 2.602 0.66 5.169 1.246 7.809 1.723 10.375 2.566 20.383 6.672 29.841 12.208 8.175 4.803 15.91 10.595 22.913 17.56 4.033 4.033 7.552 8.395 10.888 12.794 4.326 5.902 8.065 12.061 11.144 18.476 20.273 42.343 13.015 94.546-22.032 129.63-18.989 18.953-43.001 29.805-67.783 32.554l-10.64 0.675zM853.337 846.234c-31.453 0-56.895-25.442-56.895-56.897s25.442-56.897 56.895-56.897c31.417 0 56.895 25.442 56.895 56.897s-25.478 56.897-56.895 56.897z" />
<glyph unicode="&#xe965;" glyph-name="send" d="M1023.993 448.009l-1023.986 455.104 76.811-341.31 511.977-113.794-511.977-113.794-76.811-341.31z" />
<glyph unicode="&#xe966;" glyph-name="shield" d="M847.955 392.27c0-188.806-150.698-342.453-335.966-342.453v796.43h335.966v-453.977zM64.010 960.006v-570.010c0-251.386 200.641-453.941 447.979-453.941 247.446 0 447.979 204.827 447.979 456.214v567.738h-895.957z" />
<glyph unicode="&#xe967;" glyph-name="shuffle" d="M588.079 370.938l-67.855-102.736 24.305-36.771c44.87-68.058 140.954-119.407 223.437-119.407h85.342v-111.974l170.647 167.979-170.647 168.015v-112.010h-85.342c-43.405 0-104.442 32.585-128.050 68.418l-51.835 78.487zM853.322 895.971v-111.974h-85.342c-82.482 0-178.567-51.349-223.474-119.407l-245.726-372.151c-23.645-35.797-84.682-68.418-128.087-68.418h-170.647v-111.974h170.647c82.482 0 178.529 51.313 223.474 119.371l245.726 372.151c23.645 35.833 84.682 68.418 128.087 68.418h85.342v-112.010l170.611 168.015-170.611 167.979zM0.053 783.979v-111.974h170.647c43.367 0 104.404-32.622 128.087-68.418l51.835-78.523 67.819 102.736-24.268 36.807c-44.944 68.058-141.064 119.371-223.474 119.371z" />
<glyph unicode="&#xe968;" glyph-name="square" d="M895.982 959.986c70.689 0 127.993-57.305 127.993-127.993v-767.963c0-70.689-57.305-127.993-127.993-127.993h-767.963c-70.689 0-127.993 57.305-127.993 127.993v767.963c0 70.689 57.305 127.993 127.993 127.993h767.963zM895.982 831.992h-767.963v-767.963h767.963v767.963z" />
<glyph unicode="&#xe969;" glyph-name="unlock" d="M512 217.596c-41.221 0-74.679 34.381-74.679 76.814 0 42.399 33.458 76.781 74.679 76.781 41.254 0 74.679-34.381 74.679-76.781 0-42.433-33.425-76.814-74.679-76.814v0zM760.896 703.99c0 141.19-111.665 256.015-248.896 256.015s-248.864-114.826-248.864-256.015v-153.597h-124.464c-13.666 0-24.893-11.516-24.893-25.572v-179.235c0-226.221 178.323-409.579 398.221-409.579 219.929 0 398.221 183.358 398.221 409.579v179.235c0 14.056-11.227 25.572-24.893 25.572h-522.652v153.597c0 84.733 66.98 153.597 149.325 153.597s149.325-68.862 149.325-153.597h99.572z" />
<glyph unicode="&#xe96a;" glyph-name="user-add" d="M439.803 846.202c-22.041 0.249-47.052-6.135-75.725-22.142-136.535 14.178-135.611-131.264-140.857-186.728-2.409-25.76-18.412-7.217-28.838-41.316-7.887-25.696 1.781-94.022 22.701-117.855 20.622-23.481 19.005-89.595 52.693-114.679 35.9-26.721 58.434-6.672 3.3-114.615-27.782-54.373-209.785-34.613-245.618-82.217-24.402-32.336-27.088-99.52-27.406-114.051l-0.047-2.811h819.176l-0.037 2.811c-0.301 14.53-3.012 81.717-27.414 114.051-35.833 47.604-217.835 27.845-245.618 82.281-55.102 107.88-32.633 87.831 3.3 114.551 33.689 25.085 32.072 91.199 52.693 114.679 20.952 23.834 30.588 92.162 22.701 117.855-10.427 34.1-26.43 15.558-28.838 41.316-5.213 55.464 9.173 101.143-22.965 128.152-31.016 26.080-69.917 79.939-133.202 80.717zM921.593 597.324h-102.418v-99.571h-102.386v-99.571h102.386v-99.539h102.418v99.539h102.386v99.571h-102.386v99.571z" />
<glyph unicode="&#xe96b;" glyph-name="user" d="M989.663 86.297c-44.797 61.219-272.299 35.815-307.015 105.759-68.881 138.715-40.765 112.944 4.105 147.293 42.121 32.259 40.141 117.27 65.912 147.44 26.138 30.647 38.199 118.443 28.337 151.508-13.014 43.843-33.030 20.016-36.036 53.082-6.562 71.374 11.474 130.064-28.703 164.778-38.821 33.542-87.394 102.789-166.503 103.789-27.53 0.321-58.801-7.891-94.652-28.457-170.646 18.219-169.545-168.738-176.035-240.111-3.043-33.066-23.059-9.238-36.072-53.082-9.824-33.066 2.236-120.862 28.373-151.508 25.771-30.17 23.755-115.179 65.876-147.44 44.87-34.348 73.024-8.578 4.105-147.329-34.716-69.943-262.181-44.503-307.015-105.723-34.276-46.776-34.276-150.261-34.276-150.261h1023.91c0 0 0 103.486-34.312 150.261z" />
<glyph unicode="&#xe96c;" glyph-name="user2" d="M512.008 345.596c213.445 0 460.784-99.084 460.784-255.991v-102.396c0-28.277-22.922-51.199-51.199-51.199s-51.199 22.922-51.199 51.199v102.396c0 74.755-196.806 153.595-358.388 153.595l-11.883-0.138c-159.182-3.707-346.504-80.524-346.504-153.457v-102.396c0-28.277-22.923-51.199-51.199-51.199s-51.199 22.922-51.199 51.199v102.396c0 156.908 247.338 255.991 460.784 255.991zM512.008 959.974c141.425 0 255.991-114.567 255.991-255.991s-114.566-255.991-255.991-255.991c-141.423 0-255.991 114.567-255.991 255.991s114.567 255.991 255.991 255.991zM512.008 857.577c-84.872 0-153.595-68.723-153.595-153.595s68.723-153.595 153.595-153.595c84.872 0 153.595 68.723 153.595 153.595s-68.723 153.595-153.595 153.595z" />
<glyph unicode="&#xe96d;" glyph-name="video" d="M767.992 503.748v119.422c0 13.739-11.548 25.026-25.604 25.026h-132.406l-153.588 150.122h-353.964v-100.104h311.566l51.207-50.020h-439.584c-14.089 0-25.604-11.287-25.604-25.026v-500.421c0-13.77 11.516-25.026 25.604-25.026h716.77c14.056 0 25.604 11.255 25.604 25.026v119.422l255.971-144.447v550.472l-255.971-144.447z" />
<glyph unicode="&#xe96e;" glyph-name="dots-horizontal" d="M256.033 448.010c0 70.389-57.573 127.993-128.014 127.993-70.399 0-127.974-57.605-127.974-127.993s57.573-127.993 127.974-127.993c70.441 0 128.014 57.605 128.014 127.993zM640.014 448.010c0 70.389-57.573 127.993-128.014 127.993-70.399 0-127.974-57.605-127.974-127.993s57.573-127.993 127.974-127.993c70.441 0 128.014 57.605 128.014 127.993zM1023.996 448.010c0 70.389-57.573 127.993-128.014 127.993-70.399 0-127.974-57.605-127.974-127.993s57.573-127.993 127.974-127.993c70.441 0 128.014 57.605 128.014 127.993z" />
<glyph unicode="&#xe96f;" glyph-name="dots-vertical" d="M511.99 192.043c-70.389 0-127.993-57.573-127.993-128.014 0-70.399 57.605-127.974 127.993-127.974s127.993 57.573 127.993 127.974c0 70.441-57.605 128.014-127.993 128.014zM511.99 576.025c-70.389 0-127.993-57.573-127.993-128.014 0-70.399 57.605-127.974 127.993-127.974s127.993 57.573 127.993 127.974c0 70.441-57.605 128.014-127.993 128.014zM511.99 960.006c-70.389 0-127.993-57.573-127.993-128.014 0-70.399 57.605-127.974 127.993-127.974s127.993 57.573 127.993 127.974c0 70.441-57.605 128.014-127.993 128.014z" />
<glyph unicode="&#xe970;" glyph-name="share" d="M791.956 21.356c-46.373 0-84.012 38.2-84.012 85.344 0 47.108 37.639 85.308 84.012 85.308s84.012-38.2 84.012-85.308c0-47.144-37.639-85.344-84.012-85.344zM231.983 362.695c-46.409 0-84.012 38.2-84.012 85.308s37.604 85.344 84.012 85.344c46.373 0 84.012-38.235 84.012-85.344s-37.639-85.308-84.012-85.308zM791.956 874.647c46.373 0 84.012-38.235 84.012-85.344s-37.639-85.308-84.012-85.308c-46.373 0-84.012 38.2-84.012 85.308s37.639 85.344 84.012 85.344zM791.956 277.351c-40.634 0-77.949-14.701-107-39.116l-288.34 175.746c2.201 10.998 3.356 22.4 3.356 34.020 0 11.657-1.155 23.023-3.356 34.020l288.34 175.746c29.050-24.415 66.365-39.116 107-39.116 92.782 0 167.988 76.399 167.988 170.651s-75.207 170.687-167.988 170.687c-92.782 0-167.988-76.435-167.988-170.687 0-11.622 1.155-23.023 3.356-34.020l-288.34-175.711c-29.050 24.415-66.365 39.079-107 39.079-92.782 0-167.988-76.399-167.988-170.651s75.207-170.651 167.988-170.651c40.634 0 77.949 14.701 107 39.116l288.34-175.746c-2.201-10.998-3.356-22.4-3.356-34.020 0-94.252 75.207-170.651 167.988-170.651s167.988 76.399 167.988 170.651c0 94.215-75.207 170.651-167.988 170.651z" />
<glyph unicode="&#xe971;" glyph-name="share1" d="M1023.975 561.77l-455.098 398.201v-232.901c-568.854-136.631-568.854-791.050-568.854-791.050s198.001 460.010 568.854 460.010v-232.462l455.098 398.201z" />
<glyph unicode="&#xe972;" glyph-name="youtube" d="M406.282 315.19v287.718l276.647-144.371-276.647-143.347zM1013.716 652.696c0 0-9.983 70.522-40.7 101.623-38.908 40.828-82.553 41.020-102.583 43.388-143.284 10.367-358.24 10.367-358.24 10.367h-0.448c0 0-214.893 0-358.176-10.367-20.031-2.368-63.611-2.56-102.583-43.388-30.717-31.101-40.7-101.623-40.7-101.623s-10.24-82.872-10.24-165.681v-77.689c0-82.872 10.24-165.746 10.24-165.746s9.983-70.522 40.7-101.623c38.973-40.765 90.104-39.484 112.886-43.772 81.912-7.807 348.13-10.24 348.13-10.24s215.148 0.319 358.432 10.687c20.031 2.368 63.674 2.56 102.583 43.324 30.717 31.101 40.7 101.623 40.7 101.623s10.24 82.872 10.24 165.746v77.689c0 82.809-10.24 165.681-10.24 165.681v0z" />
<glyph unicode="&#xe973;" glyph-name="youtube-logo" d="M836.892 471.799c103.291 0 187.064-83.835 187.064-187.127v0-150.393c0-103.227-83.772-187.064-187.064-187.064v0h-649.889c-103.291 0-186.999 83.835-186.999 187.064v0 150.393c0 103.291 83.708 187.127 186.999 187.127v0zM788.062 320.127c-23.231 0-42.046-7.104-56.702-21.183-14.719-14.143-22.014-32.574-22.014-54.974v0-116.411c0-25.023 6.784-44.606 20.032-58.749 13.312-14.335 31.614-21.375 54.782-21.375 25.791 0 45.245 6.655 58.109 19.967 13.12 13.504 19.583 33.598 19.583 60.158v0 13.312h-53.309v-11.839c0-15.232-1.792-25.023-5.119-29.567-3.456-4.48-9.472-6.72-18.047-6.72-8.256 0-14.143 2.623-17.599 7.872-3.328 5.311-5.056 14.783-5.056 28.415v0 48.83h99.132v66.109c0 24.575-6.4 43.39-19.135 56.51-12.671 13.055-30.911 19.648-54.653 19.648zM398.128 313.663h-51.838v-216.693c0-15.487 3.072-26.943 9.088-34.686 6.144-7.807 15.040-11.584 27.135-11.584 9.664 0 19.711 2.688 30.015 8.32 10.432 5.44 20.351 13.439 29.886 23.934v0-28.479h51.838v259.188h-51.838v-196.855c-4.864-5.632-10.176-10.24-16.063-13.951-5.824-3.648-10.687-5.376-14.399-5.376-4.8 0-8.383 1.279-10.624 4.159-2.112 2.688-3.199 7.104-3.199 13.247v0 198.775zM585.576 405.819h-52.413v-351.343h52.413v19.903c6.72-7.999 14.207-13.823 22.143-17.599 7.872-3.775 16.895-5.568 27.071-5.568 15.295 0 27.135 4.8 35.199 14.591 8.191 9.856 12.16 23.934 12.16 42.173v0 143.866c0 21.183-4.224 37.374-12.928 48.446-8.64 11.071-21.119 16.511-37.566 16.511-8.064 0-16-1.984-23.934-6.144-7.744-4.096-15.167-10.176-22.143-17.983v0 113.147zM323.572 405.819h-179.192v-51.070h60.35v-300.274h58.43v300.274h60.413v51.070zM607.232 275.667c-3.712 0-7.36-0.832-11.008-2.496s-7.104-4.351-10.687-7.936v-161.529c4.224-4.096 8.32-7.36 12.352-9.151 3.967-1.792 8.064-2.815 12.479-2.815 6.336 0 11.008 1.855 14.015 5.568 2.88 3.712 4.416 9.535 4.416 17.855v133.818c0 8.832-1.728 15.424-5.44 19.967-3.775 4.48-9.216 6.72-16.127 6.72zM785.854 274.791c-8.256 0-14.143-2.368-17.728-7.168-3.648-4.608-5.376-12.415-5.376-23.295v-26.175h45.758v26.175c0 10.879-1.855 18.688-5.376 23.295-3.52 4.8-9.408 7.168-17.279 7.168zM505.81 854.476c24.126 0 43.838-6.912 59.39-20.735 15.295-13.696 22.974-31.678 22.974-53.373v0-147.449c0-24.447-7.488-43.517-22.59-57.533-15.167-13.888-35.967-20.8-62.462-20.8-25.535 0-45.95 7.168-61.245 21.567-15.232 14.399-22.911 33.598-22.911 57.854v0 148.025c0 22.143 7.872 39.742 23.487 52.797 15.679 13.12 36.862 19.648 63.357 19.648zM693.704 847.237h-58.238v-238.58c0-17.023 3.456-29.759 10.24-38.142 6.912-8.575 16.96-12.928 30.527-12.928 10.943 0 22.206 3.199 33.79 9.216 11.711 6.016 22.911 14.975 33.598 26.622v-31.678h58.365v285.49h-58.365v-216.693c-5.44-6.208-11.455-11.263-17.983-15.359-6.528-3.967-12.031-5.952-16.255-5.952-5.44 0-9.535 1.471-11.903 4.543-2.368 3.007-3.775 7.872-3.775 14.591v218.87zM260.093 948.832h-66.172l78.205-233.717v-153.336h65.596v160.569l76.477 226.485h-66.685l-40.702-154.745h-4.096l-42.622 154.745zM502.93 805.005c-7.039 0-12.863-1.855-17.344-5.695-4.416-3.904-6.655-8.896-6.655-15.167v0-155.513c0-7.872 2.112-13.823 6.271-18.112 4.096-4.416 10.048-6.463 17.728-6.463 7.936 0 14.207 2.176 18.815 6.528 4.672 4.351 7.039 10.432 7.039 18.047v0 155.513c0 6.271-2.368 11.263-7.104 15.167-4.735 3.84-11.008 5.695-18.751 5.695z" />
<glyph unicode="&#xe974;" glyph-name="dribble" d="M756.233 85.404c-4.351 26.367-27.774 154.68-84.987 312.305 141.113 22.527 263.347-16.127 272.37-19.135-19.391-121.787-89.148-226.933-187.383-293.17zM512.021 10.783c-105.914 0-202.87 37.63-278.514 100.155 5.76-4.608 9.727-7.615 9.727-7.615s83.9 182.84 343.152 273.138c0.96 0.384 1.855 0.64 2.88 0.895 61.502-159.864 86.972-293.681 93.372-331.952-52.413-22.335-110.138-34.623-170.615-34.623zM74.793 448.075c0 4.608 0.192 9.216 0.319 13.759 7.807-0.127 223.797-5.056 448.875 62.27 12.479-24.447 24.51-49.406 35.518-74.3-5.887-1.6-11.519-3.328-17.279-5.184-235.957-76.22-355.567-288.562-355.567-288.562s0.127-0.127 0.127-0.192c-69.628 77.437-111.995 179.831-111.995 292.21zM325.406 843.447c5.824-7.807 86.715-117.434 162.36-251.956-209.91-55.742-392.11-53.565-403.629-53.373 28.35 135.418 119.354 247.733 241.268 305.33zM800.711 776.123c-1.087-1.663-63.357-96.444-228.342-158.328-74.749 137.338-156.856 246.452-163.384 255.091 33.022 8.064 67.516 12.352 103.035 12.352 110.587 0 211.701-41.214 288.69-109.115zM949.12 452.362c-6.4 1.408-154.361 33.214-304.625 14.335-3.007 7.488-6.144 14.975-9.408 22.59-9.088 21.438-18.88 42.622-29.118 63.421 172.792 70.396 242.868 171.767 243.636 173.048 61.373-74.492 98.364-169.655 99.516-273.395zM1013.501 551.045c-6.655 32.895-16.768 65.341-29.886 96.252-12.736 30.399-28.671 59.645-47.165 86.972-18.367 27.135-39.358 52.605-62.462 75.709-23.103 23.231-48.638 44.222-75.772 62.525-27.327 18.496-56.637 34.366-86.972 47.23-30.911 12.991-63.229 23.103-96.252 29.823-33.598 6.912-68.349 10.432-102.972 10.432-34.75 0-69.373-3.52-103.164-10.432-32.83-6.72-65.212-16.831-96.252-29.823-30.207-12.863-59.582-28.734-86.972-47.23-27.006-18.304-52.478-39.294-75.772-62.525-23.103-23.103-44.093-48.574-62.333-75.709-18.496-27.327-34.366-56.573-47.294-86.972-13.12-30.911-23.103-63.357-29.823-96.252-6.912-33.598-10.368-68.349-10.368-102.972 0-34.75 3.456-69.501 10.368-103.164 6.72-32.895 16.703-65.277 29.823-96.187 12.928-30.335 28.799-59.709 47.294-87.036 18.239-27.071 39.231-52.541 62.333-75.709 23.295-23.166 48.766-44.158 75.772-62.462 27.39-18.496 56.765-34.366 86.972-47.165 31.038-13.12 63.421-23.103 96.252-29.886 33.79-6.912 68.413-10.432 103.164-10.432 34.623 0 69.373 3.52 102.972 10.432 33.022 6.784 65.341 16.768 96.252 29.886 30.335 12.799 59.645 28.671 86.972 47.165 27.135 18.304 52.67 39.294 75.772 62.462s44.093 48.638 62.462 75.709c18.496 27.327 34.431 56.702 47.165 87.036 13.12 30.911 23.231 63.292 29.886 96.187 6.976 33.663 10.495 68.413 10.495 103.164 0 34.623-3.52 69.373-10.495 102.972z" />
<glyph unicode="&#xe975;" glyph-name="facebook" d="M749.926 628.438h-162.105v106.298c0 39.87 26.495 49.214 45.118 49.214h114.299v175.48l-157.497 0.576c-174.776 0-214.518-130.873-214.518-214.581v-116.987h-101.179v-180.728h101.179v-511.656h212.598v511.656h143.482l18.623 180.728z" />
<glyph unicode="&#xe976;" glyph-name="vimeo" d="M0.046 651.6l41.535-54.527c0 0 85.822 67.582 114.429 33.856 28.543-33.856 137.66-441.972 174.139-517.234 31.744-66.111 119.485-153.404 215.675-91.006 96.189 62.334 415.796 335.287 473.075 657.582 57.15 322.232-384.757 254.777-431.477-25.984 116.989 70.27 179.323-28.543 119.548-140.348-59.775-111.676-114.301-184.571-142.909-184.571-28.543 0-50.559 74.75-83.198 205.434-33.856 135.037-33.664 378.422-174.204 350.839-132.476-26.047-306.616-234.042-306.616-234.042z" />
<glyph unicode="&#xe977;" glyph-name="instagram" d="M572.122 959.987c85.777-0.191 105.449-0.938 150.944-3.018 54.53-2.496 91.715-11.136 124.293-23.809 33.666-13.121 62.21-30.594 90.692-59.074s45.954-56.961 59.074-90.692c12.672-32.577 21.313-69.763 23.809-124.293 0.521-11.373 0.957-21.134 1.322-30.715l0.405-11.505c0.87-27.076 1.22-57.264 1.316-122.097v-93.503c-0.090-60.184-0.398-90.525-1.137-116.24l-0.374-11.633c-0.405-11.487-0.909-22.816-1.533-36.465-2.496-54.53-11.136-91.779-23.809-124.293-13.121-33.729-30.594-62.21-59.074-90.692s-57.026-46.017-90.692-59.074c-32.577-12.672-69.763-21.313-124.293-23.809-47.769-2.184-67.069-2.898-164.319-3.042h-93.522c-60.203 0.090-90.536 0.398-116.255 1.137l-11.634 0.374c-11.492 0.405-22.828 0.909-36.492 1.533-54.465 2.496-91.715 11.136-124.228 23.809-33.666 13.056-62.275 30.594-90.692 59.074-28.481 28.481-46.017 56.961-59.074 90.692-12.672 32.514-21.313 69.763-23.809 124.293-2.081 45.495-2.826 65.212-3.018 150.967v120.247c0.191 85.777 0.938 105.449 3.018 150.944 2.496 54.53 11.136 91.715 23.809 124.293 13.056 33.729 30.594 62.21 59.074 90.692 28.417 28.481 57.026 45.954 90.692 59.074 32.514 12.672 69.763 21.313 124.228 23.809 45.548 2.081 65.228 2.826 151.009 3.018zM543.746 867.801h-63.517c-73.576-0.066-105.23-0.398-133.62-1.31l-11.273-0.396c-9.402-0.357-19.015-0.783-30.268-1.29-49.922-2.304-76.995-10.625-95.043-17.665-23.936-9.281-40.962-20.353-58.882-38.274s-29.057-34.945-38.337-58.882c-6.977-18.049-15.296-45.122-17.6-95.043-0.416-9.003-0.777-16.955-1.089-24.59l-0.624-16.951c-0.915-28.39-1.223-60.044-1.283-133.62v-63.517c0.060-73.576 0.368-105.23 1.283-133.62l0.399-11.273c0.362-9.402 0.795-19.015 1.316-30.268 2.304-49.922 10.625-77.059 17.6-95.043 9.281-23.936 20.417-40.962 38.337-58.882s34.945-28.993 58.882-38.274c18.049-7.040 45.122-15.361 95.043-17.665 47.265-2.129 65.572-2.835 160.993-2.979h91.851c95.421 0.144 113.728 0.851 160.993 2.979 49.857 2.304 76.995 10.625 95.043 17.665 23.936 9.281 40.962 20.353 58.882 38.274s28.993 34.945 38.337 58.882c6.977 17.984 15.296 45.122 17.6 95.043 2.027 45.015 2.72 63.763 2.895 147.875v118.089c-0.176 84.112-0.869 102.86-2.895 147.875-2.304 49.922-10.625 76.995-17.6 95.043-9.344 23.936-20.417 40.962-38.337 58.882s-34.945 28.993-58.882 38.274c-18.049 7.040-45.186 15.361-95.043 17.665-11.253 0.507-20.866 0.933-30.268 1.29l-11.273 0.396c-28.39 0.912-60.044 1.244-133.62 1.31zM511.974 710.906c145.221 0 262.921-117.636 262.921-262.857 0-145.284-117.7-262.921-262.921-262.921s-262.921 117.636-262.921 262.921c0 145.221 117.7 262.857 262.921 262.857zM511.974 618.679c-94.275 0-170.694-76.419-170.694-170.629 0-94.275 76.419-170.694 170.694-170.694s170.694 76.419 170.694 170.694c0 94.211-76.419 170.629-170.694 170.629zM785.296 782.78c-33.921 0-61.442-27.521-61.442-61.442s27.521-61.442 61.442-61.442c33.921 0 61.442 27.521 61.442 61.442s-27.521 61.442-61.442 61.442z" />
<glyph unicode="&#xe978;" glyph-name="linkedin" d="M232.495 618.917h-219.587v-660.297h219.587v660.297zM771.255 634.432c-116.481 0-168.643-63.937-197.89-108.993v93.505h-219.459c0.732-16.091 1.083-68.45 1.203-137.132l0.014-122.028c-0.008-6.191-0.015-12.414-0.023-18.66l-0.060-37.699-0.077-37.837c-0.267-119.577-0.738-234.686-0.95-283.049l-0.057-12.981c-0.008-1.77-0.015-3.336-0.021-4.691l-0.029-6.218h219.459v368.773c0 19.841 1.472 39.361 7.232 53.504 15.936 39.361 52.097 80.385 112.641 80.385 79.489 0 111.297-60.673 111.297-149.378v-353.285h219.459v378.565c0 202.882-108.354 297.22-252.74 297.22zM124.122 937.404c-75.009 0-124.098-49.345-124.098-114.177 0-63.296 47.617-114.114 121.218-114.114h1.472c76.545 0 124.161 50.816 124.161 114.114-1.409 64.832-47.617 114.177-122.754 114.177z" />
<glyph unicode="&#xe979;" glyph-name="pinterest" d="M535.979 959.986c-279.474 0-420.332-200.311-420.332-367.406 0-101.179 38.206-191.158 120.378-224.694 13.439-5.503 25.599-0.192 29.439 14.719 2.752 10.303 9.151 36.351 12.031 47.23 3.904 14.719 2.431 19.903-8.448 32.766-23.679 27.966-38.782 64.060-38.782 115.322 0 148.665 111.163 281.715 289.522 281.715 157.944 0 244.724-96.507 244.724-225.397 0-169.592-75.068-312.753-186.488-312.753-61.565 0-107.515 50.942-92.796 113.339 17.663 74.492 51.902 154.872 51.902 208.694 0 48.125-25.791 88.316-79.292 88.316-62.908 0-113.467-65.085-113.467-152.249 0-55.55 18.815-93.051 18.815-93.051s-64.381-272.754-75.709-320.497c-22.463-95.163-3.391-211.766-1.728-223.542 0.895-6.976 9.919-8.64 14.015-3.328 5.695 7.552 80.636 100.027 106.171 192.439 7.168 26.175 41.343 161.721 41.343 161.721 20.479-39.039 80.188-73.34 143.674-73.34 189.046 0 317.361 172.343 317.361 403.053 0 174.455-147.768 336.944-372.335 336.944z" />
<glyph unicode="&#xe97a;" glyph-name="flickr" d="M227.124 675.060c-125.432 0-227.12-101.689-227.12-227.056s101.689-227.056 227.12-227.056c125.367 0 227.12 101.689 227.12 227.056s-101.753 227.056-227.12 227.056zM796.838 675.060c-125.367 0-227.056-101.689-227.056-227.056s101.689-227.056 227.056-227.056c125.432 0 227.12 101.689 227.12 227.056s-101.689 227.056-227.12 227.056z" />
<glyph unicode="&#xe97b;" glyph-name="twitter" d="M1023.975 765.552c-37.63-16.703-78.14-27.966-120.635-33.087 43.39 25.983 76.669 67.197 92.412 116.219-40.638-24.063-85.628-41.535-133.434-50.942-38.334 40.83-92.988 66.301-153.336 66.301-116.027 0-210.102-94.011-210.102-210.038 0-16.447 1.855-32.511 5.44-47.87-174.584 8.767-329.456 92.348-433.004 219.445-18.047-30.975-28.415-67.069-28.415-105.595 0-72.892 37.054-137.146 93.435-174.839-34.431 1.087-66.813 10.559-95.163 26.303v-2.688c0-101.755 72.445-186.68 168.44-205.942-17.536-4.864-36.094-7.423-55.293-7.423-13.567 0-26.687 1.344-39.486 3.775 26.687-83.452 104.316-144.185 196.15-145.849-71.869-56.381-162.36-89.916-260.851-89.916-16.895 0-33.598 0.96-50.11 2.88 92.988-59.582 203.383-94.332 322.033-94.332 386.413 0 597.732 320.113 597.732 597.667 0 9.151-0.192 18.175-0.64 27.198 41.086 29.631 76.732 66.621 104.827 108.731z" />
<glyph unicode="&#xe97c;" glyph-name="envelope" d="M1023.954 579.745l-511.975-228.57-511.975 228.57v-428.859c0-12.578 11.515-22.86 25.571-22.86h972.777c14.056 0 25.604 10.281 25.604 22.86v428.859zM25.575 767.995v0c-14.056 0-25.571-10.311-25.571-22.86v-63.189l511.975-228.541 511.975 228.541v63.189c0 12.55-11.548 22.86-25.604 22.86z" />
<glyph unicode="&#xe97d;" glyph-name="bars" horiz-adv-x="1132" d="M0-50.526h299.439v1010.526h-299.439zM411.72-50.526h299.439v823.368h-299.439zM823.368-50.526h299.439v673.684h-299.439z" />
</font>
</defs>
</svg>
